Samurai Jack 1080p MULTi


La série raconte les aventures de Jack, un samouraï banni par Aku, une entité maléfique. Le samouraï n’ayant pu détruire Aku, ce futur est tout entier sous la coupe du mal. L’objectif du samouraï est dès lors de retourner dans son passé afin d’empêcher la réalisation de ce futur.

Samurai.Jack.S01.CUSTOM.MULTi.1080p.BluRay.x264-CUSThOMe

mot de passe : jack
Source video, audio anglais et chapitres      : Samurai.Jack.S01.1080p.BluRay.DD2.0.x264-pcroland
Source audio francais et sous-titres francais : Integrale DVD Z1 des saisons 1 a 4 (perso)

General
Unique ID                                : 295353329561243316156303654465625775188 (0xDE32FB6EAEFD80BAE656C327F785DC54)
Format                                   : Matroska
Format version                           : Version 4
File size                                : 1.42 GiB
Duration                                 : 24 min 0 s
Overall bit rate                         : 8 445 kb/s
Movie name                               : Samurai.Jack.S01E01.CUSTOM.MULTi.1080p.BluRay.x264-CUSThOMe
Encoded date                             : UTC 2019-11-01 19:19:48
Writing application                      : mkvmerge v35.0.0 ('All The Love In The World') 64-bit
Writing library                          : libebml v1.3.9 + libmatroska v1.5.2

Video
ID                                       : 1
Format                                   : AVC
Format/Info                              : Advanced Video Codec
Format profile                           : High@L4.1
Format settings                          : CABAC / 5 Ref Frames
Format settings, CABAC                   : Yes
Format settings, Reference frames        : 5 frames
Codec ID                                 : V_MPEG4/ISO/AVC
Duration                                 : 24 min 0 s
Bit rate                                 : 8 059 kb/s
Width                                    : 1 440 pixels
Height                                   : 1 080 pixels
Display aspect ratio                     : 4:3
Frame rate mode                          : Constant
Frame rate                               : 23.976 (24000/1001) FPS
Color space                              : YUV
Chroma subsampling                       : 4:2:0
Bit depth                                : 8 bits
Scan type                                : Progressive
Bits/(Pixel*Frame)                       : 0.216
Stream size                              : 1.35 GiB (95%)
Writing library                          : x264 core 152 r2851kMod ba24899
Encoding settings                        : cabac=1 / ref=5 / deblock=1:2:2 / analyse=0x3:0x133 / me=umh / subme=11 / psy=1 / fade_compensate=0.00 / psy_rd=1.00:0.00 / mixed_ref=1 / me_range=32 / chroma_me=1 / trellis=2 / 8x8dct=1 / cqm=0 / deadzone=21,11 / fast_pskip=0 / chroma_qp_offset=-2 / threads=12 / lookahead_threads=2 / sliced_threads=0 / nr=0 / decimate=1 / interlaced=0 / bluray_compat=0 / constrained_intra=0 / bframes=8 / b_pyramid=2 / b_adapt=2 / b_bias=0 / direct=3 / weightb=1 / open_gop=0 / weightp=2 / keyint=240 / keyint_min=23 / scenecut=40 / intra_refresh=0 / rc_lookahead=60 / rc=crf / mbtree=1 / crf=17.5000 / qcomp=0.70 / qpmin=0 / qpmax=69 / qpstep=4 / ip_ratio=1.40 / aq=1:1.10
Language                                 : English
Default                                  : Yes
Forced                                   : No

Audio #1
ID                                       : 2
Format                                   : AC-3
Format/Info                              : Audio Coding 3
Commercial name                          : Dolby Digital
Codec ID                                 : A_AC3
Duration                                 : 24 min 0 s
Bit rate mode                            : Constant
Bit rate                                 : 192 kb/s
Channel(s)                               : 2 channels
Channel layout                           : L R
Sampling rate                            : 48.0 kHz
Frame rate                               : 31.250 FPS (1536 SPF)
Bit depth                                : 16 bits
Compression mode                         : Lossy
Stream size                              : 33.0 MiB (2%)
Title                                    : ENG AC3 2.0
Language                                 : English
Service kind                             : Complete Main
Default                                  : No
Forced                                   : No

Audio #2
ID                                       : 3
Format                                   : AC-3
Format/Info                              : Audio Coding 3
Commercial name                          : Dolby Digital
Codec ID                                 : A_AC3
Duration                                 : 24 min 0 s
Bit rate mode                            : Constant
Bit rate                                 : 192 kb/s
Channel(s)                               : 2 channels
Channel layout                           : L R
Sampling rate                            : 48.0 kHz
Frame rate                               : 31.250 FPS (1536 SPF)
Bit depth                                : 16 bits
Compression mode                         : Lossy
Stream size                              : 33.0 MiB (2%)
Title                                    : FR AC3 2.0
Language                                 : French
Service kind                             : Complete Main
Default                                  : Yes
Forced                                   : No

Text
ID                                       : 4
Format                                   : UTF-8
Codec ID                                 : S_TEXT/UTF8
Codec ID/Info                            : UTF-8 Plain Text
Duration                                 : 21 min 13 s
Bit rate                                 : 23 b/s
Count of elements                        : 74
Stream size                              : 3.58 KiB (0%)
Title                                    : FR FULL
Language                                 : French
Default                                  : No
Forced                                   : No

Menu
00:00:00.000                             : fr:Chapitre 1
00:00:36.911                             : fr:Chapitre 2
00:14:07.972                             : fr:Chapitre 3
00:23:17.771                             : fr:Chapitre 4