Ayakashi Japanese Classic Horror 1080p VF


Ayakashi Classic Horror est une série du genre « horreur » et « fantastique » composée de trois histoires, racontées en onze épisodes. Ce sont des histoires qui font référence à des légendes traditionnelles japonaises.

Ayakashi.Japanese.Classic.Horror.FRENCH.1080p.BluRay.REMUX.AVC-raton

mot de passe : horror
Unique ID                   : 43931007714166301059108479098281595175 (0x210CCDE833E3DD72A81FACA3D2CD1127)
Complete name               : Ayakashi.Japanese.Classic.Horror.E11.FiNAL.FRENCH.1080p.BluRay.REMUX.AVC-raton.mkv
Format                      : Matroska
Format version              : Version 4
File size                   : 2.99 GiB
Duration                    : 22 min 34 s
Overall bit rate mode       : Variable
Overall bit rate            : 19.0 Mb/s
Encoded date                : UTC 2020-01-16 14:54:07
Writing application         : mkvmerge v35.0.0 ('All The Love In The World') 64-bit
Writing library             : libebml v1.3.9 + libmatroska v1.5.2

Video
ID                          : 1
Format                      : AVC
Format/Info                 : Advanced Video Codec
Format profile              : High@L4.1
Format settings             : CABAC / 3 Ref Frames
Format settings, CABAC      : Yes
Format settings, Reference  : 3 frames
Codec ID                    : V_MPEG4/ISO/AVC
Duration                    : 22 min 30 s
Bit rate mode               : Variable
Bit rate                    : 18.6 Mb/s
Maximum bit rate            : 31.0 Mb/s
Width                       : 1 920 pixels
Height                      : 1 080 pixels
Display aspect ratio        : 16:9
Frame rate mode             : Constant
Frame rate                  : 23.976 (24000/1001) FPS
Color space                 : YUV
Chroma subsampling          : 4:2:0
Bit depth                   : 8 bits
Scan type                   : Progressive
Bits/(Pixel*Frame)          : 0.374
Stream size                 : 2.92 GiB (98%)
Default                     : Yes
Forced                      : No
Color range                 : Limited
Color primaries             : BT.709
Transfer characteristics    : BT.709
Matrix coefficients         : BT.709

Audio
ID                          : 2
Format                      : AC-3
Format/Info                 : Audio Coding 3
Commercial name             : Dolby Digital
Codec ID                    : A_AC3
Duration                    : 22 min 34 s
Bit rate mode               : Constant
Bit rate                    : 448 kb/s
Channel(s)                  : 2 channels
Channel layout              : L R
Sampling rate               : 44.1 kHz
Frame rate                  : 28.711 FPS (1536 SPF)
Bit depth                   : 16 bits
Compression mode            : Lossy
Stream size                 : 72.3 MiB (2%)
Language                    : French
Service kind                : Complete Main
Default                     : Yes
Forced                      : No

Menu
00:00:00.000                : en:(43)03:45:05:825
00:01:55.990                : en:(44)03:47:01:816
00:10:25.040                : en:(45)03:55:30:866
00:18:42.329                : en:(46)04:03:48:155
00:20:03.076                : en:(47)04:05:08:902
00:22:30.140                : en:(48)04:07:35:966

Ayakashi.Japanese.Classic.Horror.MULTi.DVDREMUX-raton

mot de passe : horror
Unique ID                   : 221015625636482733885520715171077000941 (0xA6460FA81F106F5587FA0C5650078EED)
Complete name               : Ayakashi.Japanese.Classic.Horror.E11.FiNAL.MULTi.DVDREMUX-raton.mkv
Format                      : Matroska
Format version              : Version 2
File size                   : 1.04 GiB
Duration                    : 22 min 28 s
Overall bit rate            : 6 654 kb/s
Encoded date                : UTC 2019-12-04 11:14:29
Writing application         : DVDFab
Writing library             : libebml v0.7.8 + libmatroska v0.8.1

Video
ID                          : 1
Format                      : MPEG Video
Format version              : Version 2
Format profile              : Main@Main
Format settings             : CustomMatrix / BVOP
Format settings, BVOP       : Yes
Format settings, Matrix     : Custom
Format settings, GOP        : M=3, N=12
Format settings, picture st : Frame
Codec ID                    : V_MPEG2
Codec ID/Info               : MPEG 1 or 2 Video
Duration                    : 22 min 28 s
Bit rate mode               : Constant
Bit rate                    : 6 073 kb/s
Maximum bit rate            : 6 200 kb/s
Width                       : 720 pixels
Height                      : 576 pixels
Display aspect ratio        : 4:3
Frame rate mode             : Constant
Frame rate                  : 25.000 FPS
Standard                    : PAL
Color space                 : YUV
Chroma subsampling          : 4:2:0
Bit depth                   : 8 bits
Scan type                   : Interlaced
Scan order                  : Bottom Field First
Compression mode            : Lossy
Bits/(Pixel*Frame)          : 0.586
Time code of first frame    : 01:00:00:00
Time code source            : Group of pictures header
GOP, Open/Closed            : Closed
Stream size                 : 977 MiB (91%)
Default                     : Yes
Forced                      : No
Color primaries             : BT.601 PAL
Transfer characteristics    : BT.470 System B/G
Matrix coefficients         : BT.601

Audio #1
ID                          : 2
Format                      : AC-3
Format/Info                 : Audio Coding 3
Commercial name             : Dolby Digital
Codec ID                    : A_AC3
Duration                    : 22 min 28 s
Bit rate mode               : Constant
Bit rate                    : 224 kb/s
Channel(s)                  : 2 channels
Channel layout              : L R
Sampling rate               : 48.0 kHz
Frame rate                  : 31.250 FPS (1536 SPF)
Bit depth                   : 16 bits
Compression mode            : Lossy
Stream size                 : 36.0 MiB (3%)
Language                    : Japanese
Service kind                : Complete Main
Default                     : Yes
Forced                      : No

Audio #2
ID                          : 3
Format                      : AC-3
Format/Info                 : Audio Coding 3
Commercial name             : Dolby Digital
Codec ID                    : A_AC3
Duration                    : 22 min 28 s
Bit rate mode               : Constant
Bit rate                    : 224 kb/s
Channel(s)                  : 2 channels
Channel layout              : L R
Sampling rate               : 48.0 kHz
Frame rate                  : 31.250 FPS (1536 SPF)
Bit depth                   : 16 bits
Compression mode            : Lossy
Stream size                 : 36.0 MiB (3%)
Language                    : French
Service kind                : Complete Main
Default                     : No
Forced                      : No

Text
ID                          : 10
Format                      : VobSub
Codec ID                    : S_VOBSUB
Codec ID/Info               : Picture based subtitle format used on DVDs
Language                    : French
Default                     : No
Forced                      : No

Menu
00:00:00.000                : en:(01)00:00:00:000
00:03:14.000                : en:(02)00:03:14:000
00:10:20.000                : en:(03)00:10:20:000
00:18:41.000                : en:(04)00:18:41:000
00:20:01.000                : en:(05)00:20:01:000