Yakari 1080p VF


Yakari part à la découverte des grandes plaines de l’ouest américain en compagnie de son fidèle poney Petit Tonnerre et de ses amis Arc-en-Ciel et Graine de Bison. Comme tous les Sioux, Yakari a un totem protecteur, Grand Aigle, qui lui a transmis un don exceptionnel, celui de parler et de comprendre le langage des animaux…

Yakari.2005.S01-S04.FRENCH.1080p.WEB.x264-D4KiD

mot de passe : yakari
D.A. For Kidz Presents...
.
.... Yakari.2005.S01E51E52.FiNAL.FRENCH.1080p.WEB.x264-D4KiD
.
Date....: 04/12/2019
Video...: x264 3 320 kb/s
Reso....: 1920x1080 - 16:9
FPS.....: 25.000
Audio...: FR E-AC3 128 kb/s 2.0
Subs....: FR_SDH
Size....: 608 Mo
Duration: 00:24:46.112
Rar.....: 13 * 50 Mo
Source..: Netflix (Untouched)
Link....: http://www.imdb.com/title/tt0856155/

Yakari.La.Grande.Aventure.2020.FRENCH.1080p.WEB.x264-PREUMS.mkv

mot de passe : yakari
Format version                           : Version 4
File size                                : 3.17 GiB
Duration                                 : 1 h 22 min
Overall bit rate                         : 5 496 kb/s
Encoded date                             : UTC 2020-12-12 14:41:21
Writing application                      : mkvmerge v51.0.0 ('I Wish') 64-bit
Writing library                          : libebml v1.4.0 + libmatroska v1.6.2

Video
ID                                       : 1
Format                                   : AVC
Format/Info                              : Advanced Video Codec
Format profile                           : High@L4
Format settings                          : CABAC / 4 Ref Frames
Format settings, CABAC                   : Yes
Format settings, Reference frames        : 4 frames
Codec ID                                 : V_MPEG4/ISO/AVC
Duration                                 : 1 h 22 min
Bit rate                                 : 5 110 kb/s
Width                                    : 1 912 pixels
Height                                   : 1 036 pixels
Display aspect ratio                     : 1.85:1
Frame rate mode                          : Constant
Frame rate                               : 24.000 FPS
Color space                              : YUV
Chroma subsampling                       : 4:2:0
Bit depth                                : 8 bits
Scan type                                : Progressive
Bits/(Pixel*Frame)                       : 0.107
Stream size                              : 2.94 GiB (93%)
Language                                 : French
Default                                  : Yes
Forced                                   : No
Color range                              : Limited
Color primaries                          : BT.709
Transfer characteristics                 : BT.709
Matrix coefficients                      : BT.709

Audio
ID                                       : 2
Format                                   : AC-3
Format/Info                              : Audio Coding 3
Commercial name                          : Dolby Digital
Codec ID                                 : A_AC3
Duration                                 : 1 h 22 min
Bit rate mode                            : Constant
Bit rate                                 : 384 kb/s
Channel(s)                               : 6 channels
Channel layout                           : L R C LFE Ls Rs
Sampling rate                            : 48.0 kHz
Frame rate                               : 31.250 FPS (1536 SPF)
Compression mode                         : Lossy
Delay relative to video                  : -42 ms
Stream size                              : 227 MiB (7%)
Language                                 : French
Service kind                             : Complete Main
Default                                  : Yes
Forced                                   : Yes

Menu
00:00:00.000                             : en:Chapitre 01
00:08:55.000                             : en:Chapitre 02
00:19:21.000                             : en:Chapitre 03
00:27:32.000                             : en:Chapitre 04
00:34:39.000                             : en:Chapitre 05
00:44:01.000                             : en:Chapitre 06
00:48:48.000                             : en:Chapitre 07
00:56:24.000                             : en:Chapitre 08
01:05:38.000                             : en:Chapitre 09
01:13:53.000                             : en:Chapitre 10