Bob L’Eponge 1080p VF


En plein milieu de l’océan pacifique, les aventures mouvementées de Bob l’éponge et de ses amis poissons et crustacés, à Bikini Bottom, la petite bourgade subaquatique où il fait bon vivre…

SpongeBob SquarePants S01 MULTi 1080p WEB-DL H264-GLaDOS

Bob.l’Eponge.S09.HDTV.1080p.H264.AAC

mot de passe : bob
Complete name                            : SpongeBob SquarePants S01E01 - Help Wanted MULTi 1080p WEB-DL H264-GLaDOS
Format                                   : Matroska
Format version                           : Version 4 / Version 2
File size                                : 284 MiB
Duration                                 : 9mn 8s
Overall bit rate                         : 4 344 Kbps
Encoded date                             : UTC 2015-09-08 22:38:12
Writing application                      : mkvmerge v8.3.0 ('Over the Horizon') 64bit
Writing library                          : libebml v1.3.1 + libmatroska v1.4.2

Video
ID                                       : 1
Format                                   : AVC
Format/Info                              : Advanced Video Codec
Format profile                           : High@L4
Format settings, CABAC                   : Yes
Format settings, ReFrames                : 5 frames
Codec ID                                 : V_MPEG4/ISO/AVC
Duration                                 : 9mn 8s
Bit rate                                 : 3 874 Kbps
Width                                    : 1 434 pixels
Height                                   : 1 076 pixels
Display aspect ratio                     : 4:3
Frame rate mode                          : Constant
Frame rate                               : 23.976 fps
Color space                              : YUV
Chroma subsampling                       : 4:2:0
Bit depth                                : 8 bits
Scan type                                : Progressive
Bits/(Pixel*Frame)                       : 0.105
Stream size                              : 253 MiB (89%)
Title                                    : SpongeBob SquarePants S01E01 - Help Wanted
Default                                  : Yes
Forced                                   : No
Color range                              : Limited
Color primaries                          : BT.709
Transfer characteristics                 : BT.709
Matrix coefficients                      : BT.709

Audio #1
ID                                       : 2
Format                                   : AC-3
Format/Info                              : Audio Coding 3
Mode extension                           : CM (complete main)
Format settings, Endianness              : Big
Codec ID                                 : A_AC3
Duration                                 : 9mn 8s
Bit rate mode                            : Constant
Bit rate                                 : 192 Kbps
Channel(s)                               : 2 channels
Channel positions                        : Front: L R
Sampling rate                            : 48.0 KHz
Compression mode                         : Lossy
Stream size                              : 12.6 MiB (4%)
Title                                    : French (International) : Dolby Digital 2.0
Default                                  : Yes
Forced                                   : No

Audio #2
ID                                       : 3
Format                                   : AC-3
Format/Info                              : Audio Coding 3
Mode extension                           : CM (complete main)
Format settings, Endianness              : Big
Codec ID                                 : A_AC3
Duration                                 : 9mn 8s
Bit rate mode                            : Constant
Bit rate                                 : 192 Kbps
Channel(s)                               : 2 channels
Channel positions                        : Front: L R
Sampling rate                            : 48.0 KHz
Compression mode                         : Lossy
Stream size                              : 12.6 MiB (4%)
Title                                    : English : Dolby Digital 2.0
Default                                  : No
Forced                                   : No

--------------------------------------------------------------
                                                                                               
ViDEO SOURCE.............: iTUNES

AUDiO SOURCE FRENCH......: DVD PAL

AUDiO SOURCE ENGLiSH.....: iTUNES

SUBTiTLES SOURCE FRENCH..: N/A

SUBTiTLES SOURCE ENGLiSH.: N/A

CHAPTERS SOURCE..........: N/A
--------------------------------------------------------------
Unique ID                                : 96196408097575850894452185070931139591 (0x485EC1192241D2EF12E6E61B630DDC07)
Complete name                            : Bob.L'Éponge.S09.HDTV.1080p.H264.AAC.E01a.Sports.extrêmes.E01b.Le.Grand.Livre.des.records.mkv
Format                                   : Matroska
Format version                           : Version 2
File size                                : 422 MiB
Duration                                 : 22 min 26 s
Overall bit rate                         : 2 631 kb/s
Encoded date                             : UTC 2019-09-03 10:33:32 / UTC 2019-09-03 10:33:32
Writing application                      : Lavf54.63.104
Writing library                          : Lavf54.63.104

Video
ID                                       : 1
Format                                   : AVC
Format/Info                              : Advanced Video Codec
Format profile                           : High@L4
Format settings                          : CABAC / 2 Ref Frames
Format settings, CABAC                   : Yes
Format settings, Reference frames        : 2 frames
Codec ID                                 : V_MPEG4/ISO/AVC
Duration                                 : 22 min 26 s
Nominal bit rate                         : 2 500 kb/s
Width                                    : 1 920 pixels
Height                                   : 1 080 pixels
Display aspect ratio                     : 16:9
Frame rate mode                          : Constant
Frame rate                               : 29.970 (30000/1001) FPS
Color space                              : YUV
Chroma subsampling                       : 4:2:0
Bit depth                                : 8 bits
Scan type                                : Progressive
Bits/(Pixel*Frame)                       : 0.040
Writing library                          : x264 core 129
Encoding settings                        : cabac=1 / ref=2 / deblock=1:0:0 / analyse=0x3:0x113 / me=hex / subme=6 / psy=1 / psy_rd=1.00:0.00 / mixed_ref=1 / me_range=16 / chroma_me=1 / trellis=0 / 8x8dct=1 / cqm=0 / deadzone=21,11 / fast_pskip=1 / chroma_qp_offset=-2 / threads=8 / lookahead_threads=1 / sliced_threads=0 / nr=0 / decimate=1 / interlaced=0 / bluray_compat=0 / constrained_intra=0 / bframes=0 / weightp=2 / keyint=250 / keyint_min=25 / scenecut=40 / intra_refresh=0 / rc_lookahead=40 / rc=2pass / mbtree=1 / bitrate=2500 / ratetol=1.0 / qcomp=0.60 / qpmin=10 / qpmax=51 / qpstep=4 / cplxblur=20.0 / qblur=0.5 / ip_ratio=1.41 / aq=1:1.00
Default                                  : Yes
Forced                                   : No

Audio
ID                                       : 2
Format                                   : AAC LC
Format/Info                              : Advanced Audio Codec Low Complexity
Codec ID                                 : A_AAC-2
Duration                                 : 22 min 26 s
Channel(s)                               : 2 channels
Channel layout                           : L R
Sampling rate                            : 44.1 kHz
Frame rate                               : 43.066 FPS (1024 SPF)
Compression mode                         : Lossy
Default                                  : Yes
Forced                                   : No