Skyland DVDRip VF


La terre a subi un cataclysme qui a provoqué sa dislocation en une constellation de fragments. Dans cet univers où l’eau est devenue rare, un garçon, Mahad, et sa jeune sœur, Léna, partent à la recherche de leur mère, enlevée par un des plus puissants dictateurs de la Sphère. Résolus à la retrouver, Mahad, vraie tête brûlée, et Léna, dotée de pouvoirs surnaturels, explorent cet univers éclaté.

Skyland.S01.FRENCH.DVDRip.x264.DD5.1-CUSThOMe

mot de passe : skyland
General
Unique ID                                : 57353789178022844112370128900773182110 (0x2B25F020C802255443F0CA4FCCF0FA9E)
Format                                   : Matroska
Format version                           : Version 4
File size                                : 350 MiB
Duration                                 : 22 min 34 s
Overall bit rate                         : 2 167 kb/s
Movie name                               : Skyland.S01E26.FiNAL.FRENCH.DVDRip.x264.DD5.1-CUSThOMe
Encoded date                             : UTC 2020-01-15 14:30:30
Writing application                      : mkvmerge v37.0.0 ('Leave It') 64-bit
Writing library                          : libebml v1.3.9 + libmatroska v1.5.2

Video
ID                                       : 1
Format                                   : AVC
Format/Info                              : Advanced Video Codec
Format profile                           : High@L3.1
Format settings                          : CABAC / 15 Ref Frames
Format settings, CABAC                   : Yes
Format settings, Reference frames        : 15 frames
Codec ID                                 : V_MPEG4/ISO/AVC
Duration                                 : 22 min 33 s
Bit rate                                 : 1 527 kb/s
Width                                    : 716 pixels
Height                                   : 402 pixels
Display aspect ratio                     : 16:9
Frame rate mode                          : Constant
Frame rate                               : 25.000 FPS
Color space                              : YUV
Chroma subsampling                       : 4:2:0
Bit depth                                : 8 bits
Scan type                                : Progressive
Bits/(Pixel*Frame)                       : 0.212
Stream size                              : 246 MiB (70%)
Writing library                          : x264 core 157 r2935 545de2f
Encoding settings                        : cabac=1 / ref=15 / deblock=1:1:1 / analyse=0x3:0x133 / me=umh / subme=10 / psy=1 / psy_rd=0.40:0.00 / mixed_ref=1 / me_range=24 / chroma_me=1 / trellis=2 / 8x8dct=1 / cqm=0 / deadzone=21,11 / fast_pskip=1 / chroma_qp_offset=-2 / threads=4 / lookahead_threads=1 / sliced_threads=0 / nr=0 / decimate=1 / interlaced=0 / bluray_compat=0 / constrained_intra=0 / bframes=10 / b_pyramid=2 / b_adapt=2 / b_bias=0 / direct=3 / weightb=1 / open_gop=0 / weightp=2 / keyint=250 / keyint_min=25 / scenecut=40 / intra_refresh=0 / rc_lookahead=60 / rc=2pass / mbtree=1 / bitrate=1527 / ratetol=1.0 / qcomp=0.60 / qpmin=0 / qpmax=69 / qpstep=4 / cplxblur=20.0 / qblur=0.5 / vbv_maxrate=17500 / vbv_bufsize=17500 / nal_hrd=none / filler=0 / ip_ratio=1.40 / aq=1:0.60
Language                                 : French
Default                                  : Yes
Forced                                   : No
Color range                              : Limited
Color primaries                          : BT.601 PAL
Transfer characteristics                 : BT.709
Matrix coefficients                      : BT.601

Audio #1
ID                                       : 2
Format                                   : AC-3
Format/Info                              : Audio Coding 3
Commercial name                          : Dolby Digital
Codec ID                                 : A_AC3
Duration                                 : 22 min 33 s
Bit rate mode                            : Constant
Bit rate                                 : 448 kb/s
Channel(s)                               : 6 channels
Channel layout                           : L R C LFE Ls Rs
Sampling rate                            : 48.0 kHz
Frame rate                               : 31.250 FPS (1536 SPF)
Compression mode                         : Lossy
Delay relative to video                  : 1 s 0 ms
Stream size                              : 72.3 MiB (21%)
Title                                    : FR AC3 5.1
Language                                 : French
Service kind                             : Complete Main
Default                                  : Yes
Forced                                   : No

Audio #2
ID                                       : 3
Format                                   : AC-3
Format/Info                              : Audio Coding 3
Commercial name                          : Dolby Digital
Codec ID                                 : A_AC3
Duration                                 : 22 min 32 s
Bit rate mode                            : Constant
Bit rate                                 : 192 kb/s
Channel(s)                               : 2 channels
Channel layout                           : L R
Sampling rate                            : 48.0 kHz
Frame rate                               : 31.250 FPS (1536 SPF)
Compression mode                         : Lossy
Stream size                              : 31.0 MiB (9%)
Title                                    : FR AUDIO COMMENTARY
Language                                 : French
Service kind                             : Complete Main
Default                                  : No
Forced                                   : No

Menu
00:00:00.000                             : fr:Chapitre 1
00:00:47.040                             : fr:Chapitre 2
00:21:47.040                             : fr:Chapitre 3