Spiderman The Animated Series 1080p VF


Peter Parker, un jeune étudiant, est un jour mordu par une araignée radioactive qui lui donne des super pouvoirs. En mémoire de son oncle Ben, mort dont il se sent responsable, il lutte contre le crime sous l’identité de Spider-man, l’homme araignée. Pour subvenir à ses besoins et ceux de sa Tante May, il gagne de l’argent en vendant les photos qu’il prend de ses exploits en Spider-man, au patron du Daily Bugle, Jonah Jameson. Ce dernier tente par tous les moyens de découvrir qui est Spider-Man, persuadé que celui-ci est un danger pour la société. Peter devra affronter de nombreux ennemis qui veulent le détruire tout en gardant son identité secrète pour préserver ses proches.

Spider-Man The Animated Series.1994.INTEGRALE.REMASTERED.TRUEFRENCH.1080p.BluRay.x264-FTMVHD

mot de passe : spiderman
VIDEO...: 1080p BLURAY Z1 # NOGRP
AUDIO...: AC3 2.0 DVD Z2 # D4KiD
SUBS....: AUCUN

NOTE....: NO OPENINGS, NO ENDINGS

Unique ID                      : 322382634548474461568312925722252699393 (0xF288A30EADD9F7B3F58E1BC1D9F46701)
Complete name                  : Spider-Man The Animated Series.S05E01.REMASTERED.TRUEFRENCH.1080p.BluRay.x264-FTMVHD.mkv
Format                         : Matroska
Format version                 : Version 4
File size                      : 759 MiB
Duration                       : 19 min 48 s
Overall bit rate               : 5 357 kb/s
Movie name                     : Spider-Man The Animated Series.S05E01.REMASTERED.TRUEFRENCH.1080p.BluRay.x264-FTMVHD
Encoded date                   : UTC 2021-02-22 17:06:49
Writing application            : mkvmerge v52.0.0 ('Secret For The Mad') 64-bit
Writing library                : libebml v1.4.1 + libmatroska v1.6.2

Video
ID                             : 1
Format                         : AVC
Format/Info                    : Advanced Video Codec
Format profile                 : High@L4.1
Format settings                : CABAC / 5 Ref Frames
Format settings, CABAC         : Yes
Format settings, Reference fra : 5 frames
Codec ID                       : V_MPEG4/ISO/AVC
Duration                       : 19 min 48 s
Bit rate                       : 5 163 kb/s
Width                          : 1 440 pixels
Height                         : 1 080 pixels
Display aspect ratio           : 4:3
Frame rate mode                : Constant
Frame rate                     : 23.976 (24000/1001) FPS
Color space                    : YUV
Chroma subsampling             : 4:2:0
Bit depth                      : 8 bits
Scan type                      : Progressive
Bits/(Pixel*Frame)             : 0.138
Stream size                    : 732 MiB (96%)
Title                          : 1080p BluRay US
Writing library                : x264 core 152 r2851bm ba24899
Encoding settings              : cabac=1 / ref=5 / deblock=1:1:1 / analyse=0x3:0x133 / me=umh / subme=10 / psy=1 / psy_rd=0.40:0.00 / mixed_ref=1 / me_range=24 / chroma_me=1 / trellis=2 / 8x8dct=1 / cqm=0 / deadzone=21,11 / fast_pskip=1 / chroma_qp_offset=-2 / threads=4 / lookahead_threads=4 / sliced_threads=1 / slices=4 / nr=0 / decimate=1 / interlaced=0 / bluray_compat=0 / constrained_intra=0 / bframes=0 / weightp=2 / keyint=250 / keyint_min=23 / scenecut=40 / intra_refresh=0 / rc=crf / mbtree=0 / crf=16.0 / qcomp=0.60 / qpmin=0 / qpmax=69 / qpstep=4 / ip_ratio=1.40 / aq=1:0.60
Language                       : English
Default                        : Yes
Forced                         : No

Audio
ID                             : 2
Format                         : AC-3
Format/Info                    : Audio Coding 3
Commercial name                : Dolby Digital
Codec ID                       : A_AC3
Duration                       : 19 min 48 s
Bit rate mode                  : Constant
Bit rate                       : 192 kb/s
Channel(s)                     : 2 channels
Channel layout                 : L R
Sampling rate                  : 48.0 kHz
Frame rate                     : 31.250 FPS (1536 SPF)
Compression mode               : Lossy
Stream size                    : 27.2 MiB (4%)
Title                          : FR AC3 2.0
Language                       : French
Service kind                   : Complete Main
Default                        : Yes
Forced                         : No

Spiderman The Animated Series 1992 PAL FRENCH DVD9-Angelheart

mot de passe : spiderman
Nom complet                              : Spiderman-The Animated Series 1992 PAL FRENCH DVD9-Angelheart
Format                                   : DVD Video
Profil du format                         : Program
Taille du fichier                        : 100 Kio
Duree                                    : 20 min 1s
Type de debit global                     : Variable
Debit global moyen                       : 682 b/s

Video
ID                                       : 224 (0xE0)
Format                                   : MPEG Video
Version du format                        : Version 2
Duree                                    : 20 min 1s
Type de debit                            : Variable
Largeur                                  : 720 pixels
Hauteur                                  : 576 pixels
Format a l'ecran                         : 4/3
Images par seconde                       : 25,000 Im/s
Norme                                    : PAL
Mode de compression                      : Avec perte

Audio
ID                                       : 128 (0x80)
Format                                   : AC-3
Format/Info                              : Audio Coding 3
Duree                                    : 20 min 1s
Canaux                                   : 2 canaux
Echantillonnage                          : 48,0 kHz
Mode de compression                      : Avec perte
Langue                                   : Francais

Menu #1
Duree                                    : 19 min 14s
00:00:00.000                             : Chapter 1
00:19:14.200                             : Chapter 2
List (Audio)                             : 0