Inazuma Eleven Go 720p VF


Le héros Matsukaze Tenma est en première année au collège Raimon. Il aime le foot et décide de rejoindre le club. Il est un dribbleur exceptionnel mais assez maladroit et doit encore s’améliorer. L’histoire est située 10 ans après le Football Frontier International au collège Raimon connu pour son football. Cependant une organisation secrète appelée le secteur 5 a pris le contrôle du football au cours de ces 10 années et la passion pour le foot du collège n’est plus la même qu’avant.

Inazuma.Eleven.Go.S01.FRENCH.720p.HDTV.XviD-NoTag

mot de passe : eleven
Format                                   : AVI
Format/Info                              : Audio Video Interleave
File size                                : 305 MiB
Duration                                 : 22mn 43s
Overall bit rate                         : 1 874 Kbps
Movie name                               : INaZuMa ELeVeN Go 047
Writing application                      : Lavf54.63.104

Video
ID                                       : 0
Format                                   : AVC
Format/Info                              : Advanced Video Codec
Format profile                           : Main@L3.1
Format settings, CABAC                   : Yes
Format settings, ReFrames                : 1 frame
Codec ID                                 : H264
Duration                                 : 22mn 43s
Bit rate                                 : 1 538 Kbps
Width                                    : 1 280 pixels
Height                                   : 720 pixels
Display aspect ratio                     : 16:9
Frame rate mode                          : Variable
Frame rate                               : 25.000 fps
Color space                              : YUV
Chroma subsampling                       : 4:2:0
Bit depth                                : 8 bits
Scan type                                : Progressive
Bits/(Pixel*Frame)                       : 0.067
Stream size                              : 261 MiB (86%)
Writing library                          : x264 core 129
Encoding settings                        : cabac=1 / ref=1 / deblock=1:0:0 / analyse=0x1:0x131 / me=dia / subme=2 / psy=1 / psy_rd=1.00:0.00 / mixed_ref=0 / me_range=16 / chroma_me=1 / trellis=0 / 8x8dct=0 / cqm=0 / deadzone=21,11 / fast_pskip=1 / chroma_qp_offset=0 / threads=1 / lookahead_threads=1 / sliced_threads=0 / nr=0 / decimate=1 / interlaced=0 / bluray_compat=0 / constrained_intra=0 / bframes=0 / weightp=2 / keyint=250 / keyint_min=25 / scenecut=40 / intra_refresh=0 / rc_lookahead=40 / rc=abr / mbtree=1 / bitrate=1538 / ratetol=1.0 / qcomp=0.60 / qpmin=10 / qpmax=51 / qpstep=4 / ip_ratio=1.41 / aq=1:1.00

Audio
ID                                       : 1
Format                                   : MPEG Audio
Format version                           : Version 1
Format profile                           : Layer 3
Mode                                     : Joint stereo
Codec ID                                 : 55
Codec ID/Hint                            : MP3
Duration                                 : 22mn 43s
Bit rate mode                            : Constant
Bit rate                                 : 256 Kbps
Channel(s)                               : 2 channels
Sampling rate                            : 48.0 KHz
Compression mode                         : Lossy
Stream size                              : 41.6 MiB (14%)
Alignment                                : Aligned on interleaves
Interleave, duration                     : 24 ms (0.60 video frame)