Conan Le Fils du Futur 1080p MULTi


L’histoire commence en juillet 2008, alors que l’humanité est menacée d’extinction après que la moitié du monde ait été détruite par une arme magnétique ultra-puissante, bien plus destructrice que n’importe quelle arme nucléaire connue. La croute terrestre a été profondément endommagée, l’axe de rotation de la planète a été modifié et la plupart des continents sont à présent immergés. Conan, lui, ne naît que quelques années plus tard sur l’Ile Perdue, une colonie humaine au milieu de l’océan. Avec les années tous les membres de la colonie meurent et il ne lui reste bientôt plus que son grand-père. Un jour, alors qu’il a une dizaine d’années, Conan découvre une petite fille échouée sur une plage… Elle n’est autre que Lanna, la petite-fille du professeur Rao, retenu en otage par le machiavélique Lepka de la cité d’Industria. Ce dernier va tout faire pour mettre la main sur la petite fille, pour que le professeur lui révèle les secrets de l’énergie solaire. Mais désormais Conan fera tout pour que Lanna s’en sorte libre.

Conan le fils du futur VF-VOSTFR [1080p.BluRay.x264.MP3]

mot de passe : conan
Unique ID                   : 42119435734980168352939491081849042108 (0x1FAFE8833880C7719ED0DAA7D1C274BC)
Complete name               : Conan le fils du futur (26) 1080p VF_VOSTFR_[1080p,BluRay,x264,MP3].mkv
Format                      : Matroska
Format version              : Version 4
File size                   : 955 MiB
Duration                    : 28 min 58 s
Overall bit rate            : 4 608 kb/s
Encoded date                : UTC 2013-03-20 17:58:16
Writing application         : mkvmerge v6.1.0 ('Old Devil') built on Mar  2 2013 13:53:35
Writing library             : libebml v1.3.0 + libmatroska v1.4.0
Attachments                 : BONVV___.TTF / comic.ttf / flip.ttf / GosmickSans.ttf / GosmickSansBold.ttf / GosmickSansBoldOblique.ttf / GosmickSansOblique.ttf / JANIHB__.TTF / merscrb.ttf / RAPIB___.TTF / RAPIBI__.TTF / RAPIEB__.TTF / RAPIEBI_.TTF / RAPIEI__.TTF / RAPIEN__.TTF / RAPII___.TTF / RAPIN___.TTF / RAPITB__.TTF / RAPITBI_.TTF / RAPITI__.TTF / RAPITN__.TTF / RAPIWB__.TTF / RAPIWBI_.TTF / RAPIWI__.TTF / RAPIWN__.TTF

Video
ID                          : 1
Format                      : AVC
Format/Info                 : Advanced Video Codec
Format profile              : High 10@L4.1
Format settings             : CABAC / 4 Ref Frames
Format settings, CABAC      : Yes
Format settings, Reference  : 4 frames
Codec ID                    : V_MPEG4/ISO/AVC
Duration                    : 28 min 58 s
Bit rate                    : 4 196 kb/s
Width                       : 1 440 pixels
Height                      : 1 080 pixels
Display aspect ratio        : 4:3
Frame rate mode             : Constant
Frame rate                  : 23.976 (24000/1001) FPS
Color space                 : YUV
Chroma subsampling          : 4:2:0
Bit depth                   : 10 bits
Scan type                   : Progressive
Bits/(Pixel*Frame)          : 0.113
Stream size                 : 870 MiB (91%)
Writing library             : x264 core 119 r2106 07efeb4
Encoding settings           : cabac=1 / ref=4 / deblock=1:-1:-1 / analyse=0x3:0x113 / me=umh / subme=7 / psy=1 / psy_rd=0.40:0.00 / mixed_ref=1 / me_range=16 / chroma_me=1 / trellis=2 / 8x8dct=1 / cqm=0 / deadzone=21,11 / fast_pskip=1 / chroma_qp_offset=-2 / threads=6 / sliced_threads=0 / nr=0 / decimate=1 / interlaced=0 / bluray_compat=0 / constrained_intra=0 / bframes=3 / b_pyramid=2 / b_adapt=2 / b_bias=0 / direct=3 / weightb=1 / open_gop=0 / weightp=2 / keyint=250 / keyint_min=23 / scenecut=40 / intra_refresh=0 / rc_lookahead=40 / rc=crf / mbtree=1 / crf=20.6 / qcomp=0.60 / qpmin=10 / qpmax=51 / qpstep=4 / vbv_maxrate=40000 / vbv_bufsize=40000 / crf_max=0.0 / nal_hrd=none / ip_ratio=1.40 / aq=1:0.60
Language                    : Japanese
Default                     : Yes
Forced                      : No

Audio #1
ID                          : 2
Format                      : MPEG Audio
Format version              : Version 1
Format profile              : Layer 3
Format settings             : Joint stereo / MS Stereo
Codec ID                    : A_MPEG/L3
Codec ID/Hint               : MP3
Duration                    : 28 min 58 s
Bit rate mode               : Constant
Bit rate                    : 128 kb/s
Channel(s)                  : 2 channels
Sampling rate               : 48.0 kHz
Compression mode            : Lossy
Stream size                 : 26.5 MiB (3%)
Title                       : VO
Language                    : Japanese
Default                     : No
Forced                      : No

Audio #2
ID                          : 4
Format                      : AC-3
Format/Info                 : Audio Coding 3
Commercial name             : Dolby Digital
Codec ID                    : A_AC3
Duration                    : 28 min 58 s
Bit rate mode               : Constant
Bit rate                    : 192 kb/s
Channel(s)                  : 2 channels
Channel layout              : L R
Sampling rate               : 48.0 kHz
Frame rate                  : 31.250 FPS (1536 SPF)
Bit depth                   : 16 bits
Compression mode            : Lossy
Stream size                 : 39.8 MiB (4%)
Title                       : VF
Language                    : French
Service kind                : Complete Main
Default                     : Yes
Forced                      : No

Text #1
ID                          : 3
Format                      : ASS
Codec ID                    : S_TEXT/ASS
Codec ID/Info               : Advanced Sub Station Alpha
Compression mode            : Lossless
Title                       : VO
Language                    : French
Default                     : No
Forced                      : No

Text #2
ID                          : 5
Format                      : ASS
Codec ID                    : S_TEXT/ASS
Codec ID/Info               : Advanced Sub Station Alpha
Compression mode            : Lossless
Title                       : VF
Language                    : French
Default                     : Yes
Forced                      : No