Soul Eater 720p/1080p MULTi


Soul Eater raconte l’histoire de 3 jeunes apprentis faucheurs d’âmes, de l’école Shibusen, où ils apprennent à devenir de vrais faucheurs d’âmes confirmés.

Soul.Eater.MULTi.1080p.BluRay.x264-SaSHiMi

mot de passe : soul
                              ? ? ??     miam      ?                ?
                    ?? ?  ???      ߲?    miam   ?ܲ??        ?  ??
          ? ?    ܲ?     ??    ??ܲ?޲?        ܲ???        ?? ܲ??    ?ܲ??
           ?ܲ? ?????   ?  ?ܲ????   ???      ? ?  ?   ?? ܲ??߲???   ?????
       ?ܲ????۲?? ߲?? ?ܲ??? ???   ??? ?ܲ??  ܲ   ܲ??߲??? ???ݰ   ?
     ܲ???? ????? ?  ߲۲??????? ?   ????߲??  ޲???߲??? ???? ۲??   ܲ
    ???????    ?????߲???  ? ?߲????޲?? ???   ????  ???? ???? ???ݰ ޲??
   ???? ?߲???ܲ?? ? ܲ?? ??? ????? ???  ??? ? ????  ???? ???? ???ݰ ۲??
   ?????? ܲ?۲????? ????  ?ܲ???? ??? ? ޲????߲??  ???? ???? ????  ???? ?
   ? ? ?ܲ????  ߲???۲??۲?????  ???  ?? ?߲? ?????  ??? ߲?? ??????ܲ??
    ?۲????? ????????? ߰? ??????????????????? ? ????????????? ߲??? ????? yL!
                                                                   ? ?

              Soul.Eater.E01.MULTi.1080p.BluRay.x264-SaSHiMi

   Resolution..: 1920*1080
   Debit video.: 7939 kb/sec
   Audio.......: AC3 2.0
   Langage.....: Fran?ais / Japonais
   Sous-titres.: Fran?ais / Fran?ais Forced
   Lien........: http://animeka.com/animes/detail/soul-eater.html

   Synopsis:



                                                       ????
          ?????  ?                  ?                 ???????  ?
           ?????? ?                ۲??   ?    ?     ???۰? ??    ?
           ???߰?    ?      ?      ??????      ????ܲ???????????ܲ?????
  ????????ܲ???????ܲ????  ????    ????  ??    ??????????????????ܲ???  ?
     ????߲߰????????߰??? ??????  ????  ?     ???۰?            ???? ??
   ?     ? ????     ?      ???? ?  ???? ??     ???۰????????????ܲ??? ? ???
   ???????ܲ?????????????  ???? ?  ???? ??     ?????????????????߲??? ? ܲ????
   ?????߰????????߲???? ? ???? ?? ???? ?      ???? ?            ???? ܲ????? ?
   ???? ?? ????    ???? ?  ???? ?? ????        ???۰????????????ܲ??ܲ????? ??
   ????߰  ???? ?ܲ???? ?? ?۲? ?? ?۲? ?      ?????????????????߲۲????? ??
  ܲ? ??  ?????   ߲?߰??  ???? ?? ????        ???۰?           ?۲???? ??
    ??   ????۲??   ?? ?   ???? ?  ????  ????ܲ۲?۰??????????ܲ?????  ?
        ??۲???߲??        ????߰? ????    ߲?߰????????????۲???߲?? ?
      ܲ?? ????  ߲????  ? ??߰??  ???? ?     ??         ?ܲ???? ???? ?
   ?ܲ?? ? ???? ?  ?????? ?? ??    ???? ?            ?ܲ?????߰? ???? ?
 ߲?? ??   ???? ?   ߲?߰?  ???   ޲??? ? ??    ??ܲ??????? ??   ???? ??
    ?      ???۰?     ??     ?߲??۲??? ??  ?߲?۲???? ?? ??     ???? ??
           ??? ??                ??۲? ??         ??        ?߲??ܲ?? ??
            ?                     ?߰??                        ߲??߰? ??
               Team SaSHiMi 2015!              Ascii: yL^dFs     ???

Soul.Eater.MULTi.720p.BluRay.x264-SiDERAL

mot de passe : soul
General
Format                                   : Matroska
Format version                           : Version 2
File size                                : 450 MiB
Duration                                 : 23mn 7s
Overall bit rate                         : 2 723 Kbps
Encoded date                             : UTC 2012-11-01 08:43:03
Writing application                      : mkvmerge v5.1.0 ('And so it goes') built on Nov 28 2011 23:58:28
Writing library                          : libebml v1.2.3 + libmatroska v1.3.0

Video
ID                                       : 1
Format                                   : AVC
Format/Info                              : Advanced Video Codec
Format profile                           : High@L4.0
Format settings, CABAC                   : Yes
Format settings, ReFrames                : 8 frames
Codec ID                                 : V_MPEG4/ISO/AVC
Duration                                 : 23mn 7s
Bit rate                                 : 2 337 Kbps
Width                                    : 1 280 pixels
Height                                   : 720 pixels
Display aspect ratio                     : 16:9
Frame rate                               : 23.976 fps
Color space                              : YUV
Chroma subsampling                       : 4:2:0
Bit depth                                : 8 bits
Scan type                                : Progressive
Bits/(Pixel*Frame)                       : 0.106
Stream size                              : 378 MiB (84%)
Writing library                          : x264 core 125 r2200 999b753
Default                                  : Yes
Forced                                   : No

Audio #1
ID                                       : 2
Format                                   : AC-3
Format/Info                              : Audio Coding 3
Mode extension                           : CM (complete main)
Codec ID                                 : A_AC3
Duration                                 : 23mn 7s
Bit rate mode                            : Constant
Bit rate                                 : 192 Kbps
Channel(s)                               : 2 channels
Channel positions                        : Front: L R
Sampling rate                            : 48.0 KHz
Bit depth                                : 16 bits
Compression mode                         : Lossy
Stream size                              : 31.7 MiB (7%)
Title                                    : AC3 2.0 [192 Kbps]
Language                                 : French
Default                                  : Yes
Forced                                   : No

Audio #2
ID                                       : 3
Format                                   : AC-3
Format/Info                              : Audio Coding 3
Mode extension                           : CM (complete main)
Codec ID                                 : A_AC3
Duration                                 : 23mn 7s
Bit rate mode                            : Constant
Bit rate                                 : 192 Kbps
Channel(s)                               : 2 channels
Channel positions                        : Front: L R
Sampling rate                            : 48.0 KHz
Bit depth                                : 16 bits
Compression mode                         : Lossy
Stream size                              : 31.7 MiB (7%)
Title                                    : AC3 2.0 [192 Kbps]
Language                                 : Japanese
Default                                  : No
Forced                                   : No

Text #1
ID                                       : 4
Format                                   : UTF-8
Codec ID                                 : S_TEXT/UTF8
Codec ID/Info                            : UTF-8 Plain Text
Title                                    : SUBFORCED FR - [SRT]
Language                                 : French
Default                                  : Yes
Forced                                   : No

Text #2
ID                                       : 5
Format                                   : UTF-8
Codec ID                                 : S_TEXT/UTF8
Codec ID/Info                            : UTF-8 Plain Text
Title                                    : VOSTFR - [SRT]
Language                                 : French
Default                                  : No
Forced                                   : No

Menu
00:00:00.000                             : en:Chapter 1
00:08:47.160                             : en:Chapter 2
00:20:52.290                             : en:Chapter 3