Magi The Labyrinth of Magic 720p/1080p MULTi


Dans le monde de Magi, d’étranges lieux appelés « Labyrinth » ont commencé à apparaître de manière totalement aléatoire 14 ans avant le début de l’histoire. A l’intérieur ? Des montagnes de richesses, mais aussi d’horribles pièges et dangers. Cependant, dès qu’une personne est arrivée au bout du Labyrinth, celui-ci disparaît, laissant ses trésors à celui qui l’a vaincu. Aladdin, le personnage principal, est un enfant tout ce qu’il y a de plus inoffensif… du moins, en apparence ! En effet, la flute qu’il porte autour du cou est la demeure d’un puissant djinn du nom de Hugo. Un jour, le duo va faire la connaissance d’Ali Baba, dont le rêve est d’entrer dans un Labyrinth, en quête de richesse et de gloire ! Avec l’aide d’Aladdin, son rêve lui semble être à portée de main. Mais Ali Baba ne se rend pas compte qu’avec Aladdin, son aventure ira bien plus loin.

Magi.The.Labyrinth.Of.Magic.Ep.01-13.MULTi.1080p.BluRay.REMUX.AVC-Raton

mot de passe : magi
General
Unique ID                   : 242727990959503740141561306848974594437 (0xB69BB5EABB9011449BB41BFF96B3E185)
Complete name               : Magi.The.Labyrinth.Of.Magic.Ep.13.MULTi.1080p.BluRay.REMUX.AVC-Raton.mkv
Format                      : Matroska
Format version              : Version 2
File size                   : 3.59 GiB
Duration                    : 24 min 28 s
Overall bit rate mode       : Variable
Overall bit rate            : 21.0 Mb/s
Movie name                  : MAGI_BOX1_VOL2.Title1009
Encoded date                : UTC 2020-04-27 08:16:43
Writing application         : DVDFab 11.0.3.1
Writing library             : libebml v1.3.4 + libmatroska v1.4.5

Video
ID                          : 1
Format                      : AVC
Format/Info                 : Advanced Video Codec
Format profile              : High@L4.1
Format settings             : CABAC / 3 Ref Frames
Format settings, CABAC      : Yes
Format settings, Reference  : 3 frames
Format settings, GOP        : M=3, N=12
Codec ID                    : V_MPEG4/ISO/AVC
Duration                    : 24 min 27 s
Bit rate mode               : Variable
Bit rate                    : 16.4 Mb/s
Maximum bit rate            : 26.0 Mb/s
Width                       : 1 920 pixels
Height                      : 1 080 pixels
Display aspect ratio        : 16:9
Frame rate mode             : Constant
Frame rate                  : 23.976 (24000/1001) FPS
Standard                    : NTSC
Color space                 : YUV
Chroma subsampling          : 4:2:0
Bit depth                   : 8 bits
Scan type                   : Progressive
Bits/(Pixel*Frame)          : 0.330
Stream size                 : 2.80 GiB (78%)
Default                     : Yes
Forced                      : No
Color range                 : Limited
Color primaries             : BT.709
Transfer characteristics    : BT.709
Matrix coefficients         : BT.709

Audio #1
ID                          : 2
Format                      : PCM
Format settings             : Little / Signed
Codec ID                    : A_PCM/INT/LIT
Duration                    : 24 min 28 s
Bit rate mode               : Constant
Bit rate                    : 2 304 kb/s
Channel(s)                  : 2 channels
Sampling rate               : 48.0 kHz
Frame rate                  : 32.000 FPS (1500 SPF)
Bit depth                   : 24 bits
Stream size                 : 403 MiB (11%)
Language                    : French
Default                     : Yes
Forced                      : No

Audio #2
ID                          : 3
Format                      : PCM
Format settings             : Little / Signed
Codec ID                    : A_PCM/INT/LIT
Duration                    : 24 min 28 s
Bit rate mode               : Constant
Bit rate                    : 2 304 kb/s
Channel(s)                  : 2 channels
Sampling rate               : 48.0 kHz
Frame rate                  : 32.000 FPS (1500 SPF)
Bit depth                   : 24 bits
Stream size                 : 403 MiB (11%)
Language                    : Japanese
Default                     : No
Forced                      : No

Text #1
ID                          : 4
Format                      : PGS
Codec ID                    : S_HDMV/PGS
Codec ID/Info               : Picture based subtitle format used on BDs/HD-DVDs
Duration                    : 24 min 20 s
Bit rate                    : 24.2 kb/s
Count of elements           : 586
Stream size                 : 4.22 MiB (0%)
Language                    : French
Default                     : No
Forced                      : No

Text #2
ID                          : 5
Format                      : PGS
Codec ID                    : S_HDMV/PGS
Codec ID/Info               : Picture based subtitle format used on BDs/HD-DVDs
Duration                    : 20 min 57 s
Bit rate                    : 299 b/s
Count of elements           : 4
Stream size                 : 46.0 KiB (0%)
Language                    : French
Default                     : No
Forced                      : No

Menu
00:00:00.000                : en:(01)00:00:00:000
00:01:55.490                : en:(02)00:01:55:490
00:03:25.997                : en:(03)00:03:25:997
00:14:35.708                : en:(04)00:14:35:708
00:22:42.069                : en:(05)00:22:42:069
00:24:12.951                : en:(06)00:24:12:951

Magi.The.Labyrinth.Of.Magic.S01.CUSTOM.MULTi.720p.BluRay.x264-SiDERAL

mot de passe : magi
General
Format                                   : Matroska
Format version                           : Version 4 / Version 2
File size                                : 489 MiB
Duration                                 : 24mn 12s
Overall bit rate                         : 2 826 Kbps
Encoded date                             : UTC 2014-05-17 18:54:51
Writing application                      : mkvmerge v6.8.0 ('Theme for Great Cities') 64bit built on Mar  2 2014 21:34:26
Writing library                          : libebml v1.3.0 + libmatroska v1.4.1
Attachment                               : Yes

Video
ID                                       : 1
Format                                   : AVC
Format/Info                              : Advanced Video Codec
Format profile                           : High@L4.1
Format settings, CABAC                   : Yes
Format settings, ReFrames                : 8 frames
Codec ID                                 : V_MPEG4/ISO/AVC
Duration                                 : 24mn 12s
Bit rate                                 : 2 374 Kbps
Width                                    : 1 280 pixels
Height                                   : 720 pixels
Display aspect ratio                     : 16:9
Frame rate                               : 23.976 fps
Color space                              : YUV
Chroma subsampling                       : 4:2:0
Bit depth                                : 8 bits
Scan type                                : Progressive
Bits/(Pixel*Frame)                       : 0.107
Stream size                              : 402 MiB (82%)
Writing library                          : x264 core 138 r2358 9e941d1
Default                                  : Yes
Forced                                   : No

Audio #1
ID                                       : 2
Format                                   : AC-3
Format/Info                              : Audio Coding 3
Mode extension                           : CM (complete main)
Codec ID                                 : A_AC3
Duration                                 : 24mn 12s
Bit rate mode                            : Constant
Bit rate                                 : 224 Kbps
Channel(s)                               : 2 channels
Channel positions                        : Front: L R
Sampling rate                            : 48.0 KHz
Bit depth                                : 16 bits
Compression mode                         : Lossy
Stream size                              : 38.8 MiB (8%)
Title                                    : AC3 2.0 [224 Kbps]
Language                                 : French
Default                                  : Yes
Forced                                   : No

Audio #2
ID                                       : 3
Format                                   : AC-3
Format/Info                              : Audio Coding 3
Mode extension                           : CM (complete main)
Codec ID                                 : A_AC3
Duration                                 : 24mn 12s
Bit rate mode                            : Constant
Bit rate                                 : 224 Kbps
Channel(s)                               : 2 channels
Channel positions                        : Front: L R
Sampling rate                            : 48.0 KHz
Bit depth                                : 16 bits
Compression mode                         : Lossy
Stream size                              : 38.8 MiB (8%)
Title                                    : AC3 2.0 [224 Kbps]
Language                                 : Japanese
Default                                  : No
Forced                                   : No

Text #1
ID                                       : 4
Format                                   : ASS
Codec ID                                 : S_TEXT/ASS
Codec ID/Info                            : Advanced Sub Station Alpha
Compression mode                         : Lossless
Title                                    : Forced FR [ASS-ADN]
Language                                 : French
Default                                  : Yes
Forced                                   : No

Text #2
ID                                       : 5
Format                                   : ASS
Codec ID                                 : S_TEXT/ASS
Codec ID/Info                            : Advanced Sub Station Alpha
Compression mode                         : Lossless
Title                                    : VOSTFR [ASS-ADN]
Language                                 : French
Default                                  : No
Forced                                   : No

Menu
00:00:00.000                             : en:Chapter 1
00:11:16.080                             : en:Chapter 2
00:22:29.110                             : en:Chapter 3
00:24:13.000                             : en:Chapter 4