LEGO Star Wars – Les contes des droïdes 1080p VF


Luke Skywalker et l’Alliance Rebelle ont vaincu l’empire en détruisant le deuxième Étoile Noire. Au village des Ewok sur Endor, C-3PO et R2-D2 régalent tout le monde des récits de leurs aventures.

Lego.Star.Wars.Droid.Tales.S01.FRENCH.1080p.HDTV.x264-D4KiD

mot de passe : tales
D.A. For Kidz Presents...
.
.... Lego.Star.Wars.Droid.Tales.S01E05.FiNAL.FRENCH.1080p.HDTV.x264-D4KiD
.
Date....: 20/08/2019
Video...: x264 5 853 kb/s - 25.000 FPS
Reso....: 1916x1080 - 16:9
Audio...: FR HE-AAC 61.9 kb/s 2.0
Subs....: -
Duration: 00:21:59.723
Size....: 930 Mo
Pack....: 10 * 100 Mo
Link....: http://www.imdb.com/title/tt4855868/
Channel.: France3

Star Wars The Padawan Menace.2011.TRUEFRENCH.1080p.WEB-DL.x264-FTMVHD.mkv

Star Wars The Empire Strikes Out.2012.TRUEFRENCH.1080p.WEB-DL.x264-FTMVHD.mkv

mot de passe : tales
Unique ID                      : 323121183156659312925108029452536740414 (0xF316E050A8207FBC160B34B2B20F7A3E)

Complete name                  : Star Wars The Padawan Menace.2011.TRUEFRENCH.1080p.WEB-DL.x264-FTMVHD.mkv

Format                         : Matroska

Format version                 : Version 4

File size                      : 798 MiB

Duration                       : 21 min 3 s

Overall bit rate               : 5 296 kb/s

Movie name                     : Star Wars The Padawan Menace.2011.TRUEFRENCH.1080p.WEB-DL.x264-FTMVHD

Encoded date                   : UTC 2020-04-21 15:15:03

Writing application            : mkvmerge v45.0.0 ('Heaven in Pennies') 64-bit

Writing library                : libebml v1.3.10 + libmatroska v1.5.2



Video

ID                             : 1

Format                         : AVC

Format/Info                    : Advanced Video Codec

Format profile                 : High@L4.1

Format settings                : CABAC / 4 Ref Frames

Format settings, CABAC         : Yes

Format settings, Reference fra : 4 frames

Codec ID                       : V_MPEG4/ISO/AVC

Duration                       : 21 min 3 s

Bit rate                       : 4 910 kb/s

Width                          : 1 920 pixels

Height                         : 1 080 pixels

Display aspect ratio           : 16:9

Frame rate mode                : Constant

Frame rate                     : 25.000 FPS

Color space                    : YUV

Chroma subsampling             : 4:2:0

Bit depth                      : 8 bits

Scan type                      : Progressive

Bits/(Pixel*Frame)             : 0.095

Stream size                    : 740 MiB (93%)

Title                          : 1080p WEB-DL US (YFN)

Writing library                : x264 core 152 r2851bm ba24899

Language                       : English

Default                        : Yes

Forced                         : No



Audio

ID                             : 2

Format                         : AC-3

Format/Info                    : Audio Coding 3

Commercial name                : Dolby Digital

Codec ID                       : A_AC3

Duration                       : 21 min 3 s

Bit rate mode                  : Constant

Bit rate                       : 384 kb/s

Channel(s)                     : 6 channels

Channel layout                 : L R C LFE Ls Rs

Sampling rate                  : 48.0 kHz

Frame rate                     : 31.250 FPS (1536 SPF)

Compression mode               : Lossy

Stream size                    : 57.8 MiB (7%)

Title                          : DVD PAL Z2 (FTMVHD)

Language                       : French

Service kind                   : Complete Main

Default                        : Yes

Forced                         : No



Text

ID                             : 3

Format                         : ASS

Codec ID                       : S_TEXT/ASS

Codec ID/Info                  : Advanced Sub Station Alpha

Duration                       : 16 min 41 s

Bit rate                       : 5 b/s

Count of elements              : 9

Compression mode               : Lossless

Stream size                    : 626 Bytes (0%)

Title                          : FTMV Te@m Since 2oo8 (FTMVHD)

Language                       : French

Default                        : Yes

Forced                         : Yes