Nazo no Kanojo X 1080p VOSTFR


TSUBAKI Akira, un lycéen, voit débarquer une nouvelle élève dans sa classe : la mystérieuse URABE Mikoto. Dès son arrivée, celle-ci ne manque pas de se faire remarquer, par son caractère discret et son attitude atypique. Après les cours, alors que la jeune fille est affalée sur son bureau, Akira la tire de son sommeil, et se rend compte que Mikoto, en dormant, a laissé une trace de sa salive sur son pupitre. Quand celle-ci rentre chez elle, une idée pour le moins étrange traverse l’esprit du garçon, qui se met alors à goûter sa salive. Peu après, il tombe malade, et Mikoto lui rend visite chez lui pour lui expliquer qu’il est devenu… accro à sa salive ! Selon elle, il est amoureux, et pour éviter que le jeune homme ne fasse d’autres crises de manque, il doit goûter un peu de celle-ci chaque jour. C’est ainsi que Akira, réellement sous son charme, est amené à sortir avec Mikoto. S’ensuivent alors de drôles d’aventures liées par le « fil » de la salive…

Nazo.no.Kanojo.X.S01.VOSTFR.1080p.BluRay.x264-Kanojo_X_Otome.com

mot de passe : kanojo
Format                                   : MPEG-4
Format profile                           : Base Media
Codec ID                                 : isom
File size                                : 528 MiB
Duration                                 : 23mn 40s
Overall bit rate mode                    : Variable
Overall bit rate                         : 3 118 Kbps
Encoded date                             : UTC 2016-08-20 22:14:44
Tagged date                              : UTC 2016-08-20 22:14:44

Video
ID                                       : 1
Format                                   : AVC
Format/Info                              : Advanced Video Codec
Format profile                           : High@L4.0
Format settings, CABAC                   : Yes
Format settings, ReFrames                : 4 frames
Codec ID                                 : avc1
Codec ID/Info                            : Advanced Video Coding
Duration                                 : 23mn 40s
Bit rate                                 : 2 727 Kbps
Maximum bit rate                         : 13.5 Mbps
Width                                    : 1 920 pixels
Height                                   : 1 080 pixels
Display aspect ratio                     : 16:9
Frame rate mode                          : Constant
Frame rate                               : 23.976 fps
Color space                              : YUV
Chroma subsampling                       : 4:2:0
Bit depth                                : 8 bits
Scan type                                : Progressive
Bits/(Pixel*Frame)                       : 0.055
Stream size                              : 462 MiB (87%)
Writing library                          : x264 core 148 r2597 e86f3a1
Encoding settings                        : cabac=1 / ref=3 / deblock=1:0:0 / analyse=0x3:0x133 / me=hex / subme=7 / psy=1 / psy_rd=1.10:0.20 / mixed_ref=1 / me_range=16 / chroma_me=1 / trellis=1 / 8x8dct=1 / cqm=0 / deadzone=21,11 / fast_pskip=1 / chroma_qp_offset=-3 / threads=6 / lookahead_threads=1 / sliced_threads=0 / nr=0 / decimate=1 / interlaced=0 / bluray_compat=0 / constrained_intra=0 / bframes=3 / b_pyramid=2 / b_adapt=1 / b_bias=0 / direct=1 / weightb=1 / open_gop=0 / weightp=2 / keyint=250 / keyint_min=23 / scenecut=40 / intra_refresh=0 / rc_lookahead=40 / rc=crf / mbtree=1 / crf=20.0 / qcomp=0.60 / qpmin=0 / qpmax=69 / qpstep=4 / ip_ratio=1.40 / aq=1:1.00
Encoded date                             : UTC 2016-08-20 22:14:44
Tagged date                              : UTC 2016-08-20 22:14:46

Audio
ID                                       : 2
Format                                   : AAC
Format/Info                              : Advanced Audio Codec
Format profile                           : LC
Codec ID                                 : 40
Duration                                 : 23mn 40s
Bit rate mode                            : Variable
Bit rate                                 : 384 Kbps
Maximum bit rate                         : 478 Kbps
Channel(s)                               : 2 channels
Channel positions                        : Front: L R
Sampling rate                            : 48.0 KHz
Compression mode                         : Lossy
Stream size                              : 65.4 MiB (12%)
Encoded date                             : UTC 2016-08-20 21:57:09
Tagged date                              : UTC 2016-08-20 22:14:46