Les Fous du Volant 720p VF


Onze bolides participent à des courses déjantées. Malgré les tentatives réitérées des concurrents pour l’emporter de manière malhonnête, en jouant de mauvais tours aux adversaires, Satanas et son chien Diabolo, les personnages principaux, se font systématiquement prendre à leur propre jeu.

Les.Fous.Du.Volant.iNTEGRALE.FRENCH.DVDRip.XviD-ED

Wacky.Races.2017.S01.FRENCH.720p.HDTV.x264-D4KiD

mot de passe : volant
Format                                   : AVI
Format/Info                              : Audio Video Interleave
File size                                : 184 MiB
Duration                                 : 11mn 19s
Overall bit rate                         : 2 270 Kbps
Writing application                      : Lavf53.6.0

Video
ID                                       : 0
Format                                   : xvid
Codec ID                                 : xvid
Duration                                 : 11mn 19s
Bit rate                                 : 2 001 Kbps
Width                                    : 768 pixels
Height                                   : 576 pixels
Display aspect ratio                     : 4:3
Frame rate                               : 25.000 fps
Bits/(Pixel*Frame)                       : 0.181
Stream size                              : 162 MiB (88%)

Audio
ID                                       : 1
Format                                   : MPEG Audio
Format version                           : Version 1
Format profile                           : Layer 3
Mode                                     : Joint stereo
Mode extension                           : MS Stereo
Codec ID                                 : 55
Codec ID/Hint                            : MP3
Duration                                 : 11mn 19s
Bit rate mode                            : Constant
Bit rate                                 : 256 Kbps
Channel(s)                               : 2 channels
Sampling rate                            : 44.1 KHz
Compression mode                         : Lossy
Stream size                              : 20.7 MiB (11%)
Alignment                                : Aligned on interleaves
Interleave, duration                     : 26 ms (0.65 video frame)
Interleave, preload duration             : 52 ms
D.A. For Kidz Presents...
.
.... Wacky.Races.2017.S01E40.FiNAL.FRENCH.720p.HDTV.x264-D4KiD
.
Date....: 28/05/2019
Video...: x264 2 523 kb/s - 25.000 FPS
Reso....: 1280x720 - 16:9
Audio...: FR HE-AAC 61.9 kb/s 2.0
Subs....: -
Duration: 00:10:13.080
Size....: 189 Mo
Pack....: 4 * 50 Mo
Link....: http://www.imdb.com/title/tt5520388/
Channel.: Boomerang