Burn the Witch 720p/1080p VOSTFR


L’histoire se déroule dans un Londres fictif, où les humains vivent en harmonie avec les dragons et les sorcières. Un jour, les dragons sont devenus hostiles et ont commencé à attaquer les humains, les privant ainsi de leurs foyers.

Pour contrer cette menace, Wing Bind, une organisation composée de puissant sorciers est créée. C’est dans ce cadre que nous suivons le quotidien de Niihashi Noel et Nini Spangle, deux sorcières que tout oppose.

[WhoWillReplaceHS] Burn the Witch – [1080p] [MULTiSUBS]

mot de passe : witch
General
Unique ID                                : 42307466757258199004925719807818382355 (0x1FD41F28613BB1456938D67E287EBC13)
Complete name                            : [WhoWillReplaceHS] Burn the Witch - 01 [1080p].mkv
Format                                   : Matroska
Format version                           : Version 4 / Version 2
File size                                : 1.13 GiB
Duration                                 : 19mn 53s
Overall bit rate                         : 8 115 Kbps
Encoded date                             : UTC 2020-10-02 04:01:46
Writing application                      : mkvmerge v40.0.0 ('Old Town Road + Pony') 64-bit
Writing library                          : libebml v1.3.9 + libmatroska v1.5.2

Video
ID                                       : 1
Format                                   : AVC
Format/Info                              : Advanced Video Codec
Format profile                           : High@L4
Format settings, CABAC                   : Yes
Format settings, ReFrames                : 4 frames
Format settings, GOP                     : M=1, N=48
Codec ID                                 : V_MPEG4/ISO/AVC
Duration                                 : 19mn 53s
Bit rate                                 : 8 000 Kbps
Width                                    : 1 920 pixels
Height                                   : 1 080 pixels
Display aspect ratio                     : 16:9
Frame rate mode                          : Constant
Frame rate                               : 23.976 (24000/1001) fps
Color space                              : YUV
Chroma subsampling                       : 4:2:0
Bit depth                                : 8 bits
Scan type                                : Progressive
Bits/(Pixel*Frame)                       : 0.161
Stream size                              : 1.11 GiB (98%)
Writing library                          : x264 core 142
Encoding settings                        : cabac=1 / ref=4 / deblock=1:1:1 / analyse=0x3:0x113 / me=umh / subme=8 / psy=1 / psy_rd=0.40:0.00 / mixed_ref=1 / me_range=16 / chroma_me=1 / trellis=1 / 8x8dct=1 / cqm=0 / deadzone=21,11 / fast_pskip=1 / chroma_qp_offset=-2 / threads=12 / lookahead_threads=2 / sliced_threads=0 / nr=0 / decimate=1 / interlaced=0 / bluray_compat=0 / constrained_intra=0 / bframes=0 / weightp=2 / keyint=96 / keyint_min=48 / scenecut=40 / intra_refresh=0 / rc_lookahead=48 / rc=2pass / mbtree=1 / bitrate=8000 / ratetol=1.0 / qcomp=0.60 / qpmin=0 / qpmax=69 / qpstep=4 / cplxblur=20.0 / qblur=0.5 / vbv_maxrate=12000 / vbv_bufsize=18000 / nal_hrd=none / filler=0 / ip_ratio=1.40 / aq=1:0.60
Default                                  : Yes
Forced                                   : No

Audio
ID                                       : 2
Format                                   : AAC
Format/Info                              : Advanced Audio Codec
Format profile                           : LC
Codec ID                                 : A_AAC
Duration                                 : 19mn 53s
Bit rate                                 : 128 Kbps
Channel(s)                               : 2 channels
Channel positions                        : Front: L R
Sampling rate                            : 44.1 KHz
Frame rate                               : 43.066 fps (1024 spf)
Compression mode                         : Lossy
Stream size                              : 18.2 MiB (2%)
Language                                 : Japanese
Default                                  : Yes
Forced                                   : No

Text #1
ID                                       : 3
Format                                   : ASS
Codec ID                                 : S_TEXT/ASS
Codec ID/Info                            : Advanced Sub Station Alpha
Duration                                 : 17mn 32s
Bit rate                                 : 266 bps
Count of elements                        : 371
Compression mode                         : Lossless
Stream size                              : 34.3 KiB (0%)
Language                                 : English
Default                                  : Yes
Forced                                   : No

Text #2
ID                                       : 4
Format                                   : ASS
Codec ID                                 : S_TEXT/ASS
Codec ID/Info                            : Advanced Sub Station Alpha
Duration                                 : 17mn 32s
Bit rate                                 : 130 bps
Count of elements                        : 270
Compression mode                         : Lossless
Stream size                              : 16.8 KiB (0%)
Language                                 : Latin
Default                                  : No
Forced                                   : No

Text #3
ID                                       : 5
Format                                   : ASS
Codec ID                                 : S_TEXT/ASS
Codec ID/Info                            : Advanced Sub Station Alpha
Duration                                 : 17mn 32s
Bit rate                                 : 130 bps
Count of elements                        : 270
Compression mode                         : Lossless
Stream size                              : 16.8 KiB (0%)
Language                                 : Spanish
Default                                  : No
Forced                                   : No

Text #4
ID                                       : 6
Format                                   : ASS
Codec ID                                 : S_TEXT/ASS
Codec ID/Info                            : Advanced Sub Station Alpha
Duration                                 : 17mn 32s
Bit rate                                 : 153 bps
Count of elements                        : 290
Compression mode                         : Lossless
Stream size                              : 19.7 KiB (0%)
Language                                 : French
Default                                  : No
Forced                                   : No

Text #5
ID                                       : 7
Format                                   : ASS
Codec ID                                 : S_TEXT/ASS
Codec ID/Info                            : Advanced Sub Station Alpha
Duration                                 : 17mn 32s
Bit rate                                 : 156 bps
Count of elements                        : 304
Compression mode                         : Lossless
Stream size                              : 20.2 KiB (0%)
Language                                 : Portuguese
Default                                  : No
Forced                                   : No

Text #6
ID                                       : 8
Format                                   : ASS
Codec ID                                 : S_TEXT/ASS
Codec ID/Info                            : Advanced Sub Station Alpha
Duration                                 : 17mn 32s
Bit rate                                 : 238 bps
Count of elements                        : 325
Compression mode                         : Lossless
Stream size                              : 30.7 KiB (0%)
Language                                 : Arabic
Default                                  : No
Forced                                   : No

Text #7
ID                                       : 9
Format                                   : ASS
Codec ID                                 : S_TEXT/ASS
Codec ID/Info                            : Advanced Sub Station Alpha
Duration                                 : 17mn 32s
Bit rate                                 : 272 bps
Count of elements                        : 370
Compression mode                         : Lossless
Stream size                              : 35.0 KiB (0%)
Language                                 : Italian
Default                                  : No
Forced                                   : No

Text #8
ID                                       : 10
Format                                   : ASS
Codec ID                                 : S_TEXT/ASS
Codec ID/Info                            : Advanced Sub Station Alpha
Duration                                 : 17mn 33s
Bit rate                                 : 148 bps
Count of elements                        : 288
Compression mode                         : Lossless
Stream size                              : 19.1 KiB (0%)
Language                                 : German
Default                                  : No
Forced                                   : No

Text #9
ID                                       : 11
Format                                   : ASS
Codec ID                                 : S_TEXT/ASS
Codec ID/Info                            : Advanced Sub Station Alpha
Duration                                 : 17mn 32s
Bit rate                                 : 267 bps
Count of elements                        : 308
Compression mode                         : Lossless
Stream size                              : 34.3 KiB (0%)
Language                                 : Russian
Default                                  : No
Forced                                   : No

Burn.the.Witch.S01.SUBFRENCH.720p.WEBRip.x264-BSD

mot de passe : witch
█▀▀▀▀▀▀▀▀▀▀▀▀▀▀▀▀▀▀▀▀▀▀▀▀▀▀▀▀▀▀▀▀▀▀▀▀▀▀▀▀▀▀▀▀▀▀▀▀▀▀▀▀▀▀▀▀▀▀▀▀▀▀▀▀▀▀▀▀▀▀▀▀▀▀▀▀▀▀▀▀▀▀▀▀▀▀▀▀▀▀▀▀▀▀▀▀▀▀▀▀▀▀▀▀▀▀▀▀▀▀▀▀█
█ █▀▀▀▀▀▀▀▀▀▀▀▀▀▀▀▀▀▀▀▀▀▀▀▀▀▀▀▀▀▀▀▀▀▀▀▀▀▀▀▀▀▀▀▀▀▀▀▀▀▀▀▀▀▀▀▀▀▀▀▀▀▀▀▀▀▀▀▀▀▀▀▀▀▀▀▀▀▀▀▀▀▀▀▀▀▀▀▀▀▀▀▀▀▀▀▀▀▀▀▀▀▀▀▀▀▀▀▀█ █
█ █     oooooooooo.   .oooooo..o oooooooooo.           ooooooooooooo                                           
█ █     `888'   `Y8b d8P'    `Y8 `888'   `Y8b          8'   888   `8                                           
█ █      888     888 Y88bo.       888      888              888       .ooooo.   .oooo.   ooo. .oo.  .oo.       
█ █      888oooo888'  `"Y8888o.   888      888              888      d88' `88b `P  )88b  `888P"Y88bP"Y88b      
█ █      888    `88b      `"Y88b  888      888 8888888      888      888ooo888  .oP"888   888   888   888      
█ █      888    .88P oo     .d8P  888     d88'              888      888    .o d8(  888   888   888   888      
█ █     o888bood8P'  8""88888P'  o888bood8P'               o888o     `Y8bod8P' `Y888""8o o888o o888o o888o     
█ █                                                                                                            █ █
█ ▀▀▀▀▀▀▀▀▀▀▀▀▀▀▀▀▀▀▀▀▀▀▀▀▀▀▀▀▀▀▀▀▀▀▀▀▀▀▀▀▀▀▀▀▀▀▀▀▀▀▀▀▀▀▀▀▀▀▀▀▀▀▀▀▀▀▀▀▀▀▀▀▀▀▀▀▀▀▀▀▀▀▀▀▀▀▀▀▀▀▀▀▀▀▀▀▀▀▀▀▀▀▀▀▀▀▀▀▀▀ █
█ █▀▀▀▀▀▀▀▀▀▀▀▀▀▀▀▀▀▀▀▀▀▀▀▀▀▀▀▀▀▀▀▀▀▀▀▀▀▀▀▀▀▀▀▀▀▀▀▀▀▀▀▀▀▀▀▀▀▀▀▀▀▀▀▀▀▀▀▀▀▀▀▀▀▀▀▀▀▀▀▀▀▀▀▀▀▀▀▀▀▀▀▀▀▀▀▀▀▀▀▀▀▀▀▀▀▀▀▀█ █
█ █                                                                                                            █ █
█ █         PRESENTE.....: Burn.the.Witch.S01E03.SUBFRENCH.720p.WEBRip.x264-BSD                                █ █
█ █                                                                                                            █ █
█ █         TheMovieDB...: https://www.themoviedb.org/tv/110911                                                █ █
█ █                                                                                                            █ █
█ █         ■ CODEC...........: x264                 ║      ■ SOURCE ViDEO....: Crunchyroll (Untouched)        █ █
█ █                                                  ║                                                         █ █
█ █         ■ BiTRATE.........: 4000                 ║      ■ SOURCE AUDiO....: Crunchyroll (Untouched)        █ █
█ █                                                  ║                                                         █ █
█ █         ■ RESOLUTiON......: 1 280 X 720          ║      ■ SOURCE SUBTiTLES: Crunchyroll                    █ █
█ █                                                  ║                                                         █ █
█ █         ■ ASPECT RATiO....: 16:9                 ║      ■ FONT............: Burbin Casual NC_0.ttf         █ █
█ █                                                  ║                                                         █ █
█ █         ■ FRAMERATE.......: 23.976 fps           ║      ■ NB FICHIER(S)...: 1                              █ █
█ █                                                  ║                                                         █ █
█ █         ■ LANGUAGE(s).....: Japonais             ║      ■ Note............:                                █ █
█ █                                                  ║                                                         █ █
█ █         ■ AUDiO iNFOS.....: AAC 128 kb/s         ║                                                         █ █
█ █                                                  ║                                                         █ █
█ █         ■ SUBTiTLES.......: Francais             ║                                                         █ █
█ █                                                  ║                                                         █ █
█ █         ■ DURATiON........: 24 min               ║                                                         █ █
█ █                                                  ║                                                         █ █
█ █         ■ FORMAT..........: MKV                  ║                                                         █ █
█ █                                                                                                            █ █
█ ▀▀▀▀▀▀▀▀▀▀▀▀▀▀▀▀▀▀▀▀▀▀▀▀▀▀▀▀▀▀▀▀▀▀▀▀▀▀▀▀▀▀▀▀▀▀▀▀▀▀▀▀▀▀▀▀▀▀▀▀▀▀▀▀▀▀▀▀▀▀▀▀▀▀▀▀▀▀▀▀▀▀▀▀▀▀▀▀▀▀▀▀▀▀▀▀▀▀▀▀▀▀▀▀▀▀▀▀▀▀ █
█ █▀▀▀▀▀▀▀▀▀▀▀▀▀▀▀▀▀▀▀▀▀▀▀▀▀▀▀▀▀▀▀▀▀▀▀▀▀▀▀▀▀▀▀▀▀▀▀▀▀▀▀▀▀▀▀▀▀▀▀▀▀▀▀▀▀▀▀▀▀▀▀▀▀▀▀▀▀▀▀▀▀▀▀▀▀▀▀▀▀▀▀▀▀▀▀▀▀▀▀▀▀▀▀▀▀▀▀▀█ █
█ █                                            REMERCIEMENTS :                                                 █ █
█ █                                                                                                            █ █
█ █                                                                                                            █ █
█ █                                                                                                            █ █
█ ▀▀▀▀▀▀▀▀▀▀▀▀▀▀▀▀▀▀▀▀▀▀▀▀▀▀▀▀▀▀▀▀▀▀▀▀▀▀▀▀▀▀▀▀▀▀▀▀▀▀▀▀▀▀▀▀▀▀▀▀▀▀▀▀▀▀▀▀▀▀▀▀▀▀▀▀▀▀▀▀▀▀▀▀▀▀▀▀▀▀▀▀▀▀▀▀▀▀▀▀▀▀▀▀▀▀▀▀▀▀ █
▀▀▀▀▀▀▀▀▀▀▀▀▀▀▀▀▀▀▀▀▀▀▀▀▀▀▀▀▀▀▀▀▀▀▀▀▀▀▀▀▀▀▀▀▀▀▀▀▀▀▀▀▀▀▀▀▀▀▀▀▀▀▀▀▀▀▀▀▀▀▀▀▀▀▀▀▀▀▀▀▀▀▀▀▀▀▀▀▀▀▀▀▀▀▀▀▀▀▀▀▀▀▀▀▀▀▀▀▀▀▀▀▀▀