Canaan, tueuses nées 720p/1080p MULTi


L’histoire se déroule a Shanghaï en Chine.
Minoru Minorikawa, journaliste à l’affut du moindre scoop et Oosawa Maria, une photographe très énergique, sont envoyés pour faire un reportage sur le festival de la ville de Shangaï.
Des évènements étranges ont alors lieu durant le festival. Maria Oosawa se retrouve poursuivie par des hommes masqués pour avoir pris en photo un homme décédé mystérieusement. Elle est alors sauvée par Canaan une des ses ancienne connaissances et à la fois une redoutable mercenaire possédant la synesthésie, la capacité d’utiliser ses cinq sens à la fois.
Parallèlement, Alphard, la leader du groupe terroriste « Snakes » qui avait été capturé par la CIA, s’échappe grâce à l’aide de sa soeur.
Alphard semble s’intéresser à Canaan et avoir un lien avec elle.

Canaan.MULTi.1080p.BluRay.x264-RiPiT

mot de passe : canaan
Source..: BR FR
TMDb....: https://www.themoviedb.org/tv/43418

Note....: IVTC used

Contact.: ripitcontact@protonmail.com

---------------------------------------------------------------------------------------
General
Complete name                            : Canaan.E13.FiNAL.MULTi.1080p.BluRay.x264-RiPiT.mkv
Format                                   : Matroska
Format version                           : Version 4
File size                                : 2.18 GiB
Duration                                 : 23 min 48 s
Overall bit rate                         : 13.1 Mb/s
Movie name                               : Canaan.E13.FiNAL.MULTi.1080p.BluRay.x264-RiPiT
Encoded date                             : UTC 2020-08-23 23:09:22
Writing application                      : mkvmerge v38.0.0 ('The Silent Type') 64-bit
Writing library                          : libebml v1.3.9 + libmatroska v1.5.2

Video
ID                                       : 1
Format                                   : AVC
Format/Info                              : Advanced Video Codec
Format profile                           : High@L4.1
Format settings                          : CABAC / 4 Ref Frames
Format settings, CABAC                   : Yes
Format settings, Reference frames        : 4 frames
Codec ID                                 : V_MPEG4/ISO/AVC
Duration                                 : 23 min 48 s
Bit rate                                 : 10.8 Mb/s
Width                                    : 1 920 pixels
Height                                   : 1 080 pixels
Display aspect ratio                     : 16:9
Frame rate mode                          : Constant
Frame rate                               : 23.976 (24000/1001) FPS
Color space                              : YUV
Chroma subsampling                       : 4:2:0
Bit depth                                : 8 bits
Scan type                                : Progressive
Bits/(Pixel*Frame)                       : 0.217
Stream size                              : 1.80 GiB (82%)
Writing library                          : x264 core 161
Encoding settings                        : cabac=1 / ref=4 / deblock=1:0:0 / analyse=0x3:0x113 / me=umh / subme=8 / psy=1 / psy_rd=1.00:0.00 / mixed_ref=1 / me_range=16 / chroma_me=1 / trellis=1 / 8x8dct=1 / cqm=0 / deadzone=21,11 / fast_pskip=0 / chroma_qp_offset=-2 / threads=24 / lookahead_threads=4 / sliced_threads=0 / nr=0 / decimate=1 / interlaced=0 / bluray_compat=0 / constrained_intra=0 / bframes=3 / b_pyramid=2 / b_adapt=1 / b_bias=0 / direct=3 / weightb=1 / open_gop=0 / weightp=2 / keyint=240 / keyint_min=23 / scenecut=40 / intra_refresh=0 / rc_lookahead=50 / rc=2pass / mbtree=1 / bitrate=10801 / ratetol=1.0 / qcomp=0.60 / qpmin=0 / qpmax=69 / qpstep=4 / cplxblur=20.0 / qblur=0.5 / ip_ratio=1.40 / aq=1:1.00
Default                                  : Yes
Forced                                   : No

Audio #1
ID                                       : 2
Format                                   : DTS
Format/Info                              : Digital Theater Systems
Codec ID                                 : A_DTS
Duration                                 : 23 min 42 s
Bit rate mode                            : Constant
Bit rate                                 : 1 152 kb/s
Channel(s)                               : 6 channels
Channel layout                           : C L R Ls Rs LFE
Sampling rate                            : 48.0 kHz
Frame rate                               : 93.750 FPS (512 SPF)
Bit depth                                : 24 bits
Compression mode                         : Lossy
Stream size                              : 195 MiB (9%)
Language                                 : French
Default                                  : Yes
Forced                                   : No

Audio #2
ID                                       : 3
Format                                   : DTS
Format/Info                              : Digital Theater Systems
Codec ID                                 : A_DTS
Duration                                 : 23 min 42 s
Bit rate mode                            : Constant
Bit rate                                 : 1 152 kb/s
Channel(s)                               : 6 channels
Channel layout                           : C L R Ls Rs LFE
Sampling rate                            : 48.0 kHz
Frame rate                               : 93.750 FPS (512 SPF)
Bit depth                                : 24 bits
Compression mode                         : Lossy
Stream size                              : 195 MiB (9%)
Language                                 : Japanese
Default                                  : No
Forced                                   : No

Text #1
ID                                       : 4
Format                                   : UTF-8
Codec ID                                 : S_TEXT/UTF8
Codec ID/Info                            : UTF-8 Plain Text
Duration                                 : 21 min 8 s
Bit rate                                 : 0 b/s
Count of elements                        : 2
Stream size                              : 95.0 Bytes (0%)
Title                                    : Forced
Language                                 : French
Default                                  : Yes
Forced                                   : Yes

Text #2
ID                                       : 5
Format                                   : UTF-8
Codec ID                                 : S_TEXT/UTF8
Codec ID/Info                            : UTF-8 Plain Text
Duration                                 : 23 min 26 s
Bit rate                                 : 42 b/s
Count of elements                        : 264
Stream size                              : 7.31 KiB (0%)
Title                                    : Full
Language                                 : French
Default                                  : No
Forced                                   : No

Canaan.FRENCH.720p.BluRay.x264-RiPiT

mot de passe : canaan
Source..: BR FR
TMDb....: https://www.themoviedb.org/tv/43418

Note....: IVTC used

Contact.: ripitcontact@protonmail.com

---------------------------------------------------------------------------------------
General
Complete name                            : Canaan.E13.FiNAL.FRENCH.720p.BluRay.x264-RiPiT.mkv
Format                                   : Matroska
Format version                           : Version 4
File size                                : 892 MiB
Duration                                 : 23 min 48 s
Overall bit rate                         : 5 238 kb/s
Movie name                               : Canaan.E13.FiNAL.FRENCH.720p.BluRay.x264-RiPiT
Encoded date                             : UTC 2020-11-08 12:12:51
Writing application                      : mkvmerge v38.0.0 ('The Silent Type') 64-bit
Writing library                          : libebml v1.3.9 + libmatroska v1.5.2

Video
ID                                       : 1
Format                                   : AVC
Format/Info                              : Advanced Video Codec
Format profile                           : High@L4.1
Format settings                          : CABAC / 9 Ref Frames
Format settings, CABAC                   : Yes
Format settings, Reference frames        : 9 frames
Codec ID                                 : V_MPEG4/ISO/AVC
Duration                                 : 23 min 48 s
Bit rate                                 : 4 090 kb/s
Width                                    : 1 280 pixels
Height                                   : 720 pixels
Display aspect ratio                     : 16:9
Frame rate mode                          : Constant
Frame rate                               : 23.976 (24000/1001) FPS
Color space                              : YUV
Chroma subsampling                       : 4:2:0
Bit depth                                : 8 bits
Scan type                                : Progressive
Bits/(Pixel*Frame)                       : 0.185
Stream size                              : 696 MiB (78%)
Writing library                          : x264 core 161
Encoding settings                        : cabac=1 / ref=9 / deblock=1:0:0 / analyse=0x3:0x113 / me=umh / subme=8 / psy=1 / psy_rd=1.00:0.00 / mixed_ref=1 / me_range=16 / chroma_me=1 / trellis=1 / 8x8dct=1 / cqm=0 / deadzone=21,11 / fast_pskip=0 / chroma_qp_offset=-2 / threads=22 / lookahead_threads=3 / sliced_threads=0 / nr=0 / decimate=1 / interlaced=0 / bluray_compat=0 / constrained_intra=0 / bframes=3 / b_pyramid=2 / b_adapt=1 / b_bias=0 / direct=3 / weightb=1 / open_gop=0 / weightp=2 / keyint=240 / keyint_min=23 / scenecut=40 / intra_refresh=0 / rc_lookahead=50 / rc=2pass / mbtree=1 / bitrate=4090 / ratetol=1.0 / qcomp=0.60 / qpmin=0 / qpmax=69 / qpstep=4 / cplxblur=20.0 / qblur=0.5 / ip_ratio=1.40 / aq=1:1.00
Default                                  : Yes
Forced                                   : No

Audio
ID                                       : 2
Format                                   : DTS
Format/Info                              : Digital Theater Systems
Codec ID                                 : A_DTS
Duration                                 : 23 min 42 s
Bit rate mode                            : Constant
Bit rate                                 : 1 152 kb/s
Channel(s)                               : 6 channels
Channel layout                           : C L R Ls Rs LFE
Sampling rate                            : 48.0 kHz
Frame rate                               : 93.750 FPS (512 SPF)
Bit depth                                : 24 bits
Compression mode                         : Lossy
Stream size                              : 195 MiB (22%)
Language                                 : French
Default                                  : Yes
Forced                                   : No

Text
ID                                       : 3
Format                                   : UTF-8
Codec ID                                 : S_TEXT/UTF8
Codec ID/Info                            : UTF-8 Plain Text
Duration                                 : 21 min 8 s
Bit rate                                 : 0 b/s
Count of elements                        : 2
Stream size                              : 95.0 Bytes (0%)
Title                                    : Forced
Language                                 : French
Default                                  : Yes
Forced                                   : Yes