La Famille Pierrafeu 1080p MULTi


Tout se passe à l’âge de la pierre mais la société est exactement la même que celle des États-Unis dans la deuxième moitié du XXe siècle. C’est une version fantaisiste de la préhistoire où des dinosaures, des ptérodactyles, des tigres à dents de sabre, des mammouths et d’autres animaux disparus depuis longtemps coexistent avec des hommes des cavernes, qui emploient une technologie équivalente à celle du XXe siècle en se servant surtout de divers animaux comme outils. Les personnages conduisent des voitures faites de pierre ou de bois et de peaux de bêtes.

The.Flintstones.S01.MULTi.1080p.BluRay.x264-NEWGENESiS

The.Flintstones.S02.MULTi.1080p.BluRay.x264-NEWGENESiS

The.Flintstones.S03.MULTi.1080p.BluRay.x264-NEWGENESiS

mot de passe : pierrafeu
Release__: The.Flintstones.S01.MULTi.1080p.BluRay.x264-NEWGENESiS

Source___: BluRay (The Flintstones S01-S06 1080p Blu-ray AVC DD 2.0-YABADABADOO)
Encode___: NEWGENESiS

iMDB_____: https://www.imdb.com/title/tt0053502/
TMDB_____: https://www.themoviedb.org/tv/1996-the-flintstones

Video____: x264 @ 5120~8580 kb/s
Reso_____: 1440x1080
FPS______: 23.976

Audio____: French  (AC3 2.0) @ 192kb/s
           English (AC3 2.0) @ 192kb/s

Subitles_: French (SRT)
           French (SUP)
           English (SRT)
           English SDH (SUP)

Info_____: J'ai remplacé la piste anglaise de l'episode S01E17 par celle du DVD
           car il manque les effets sonnores et musiques sur le Bluray.
           L'episode pilote "perdu" S01E00 - The Flagstones est inclu en SD dans ce pack en VOSTFR.

Mediainfo:

General
Complete name                            : The.Flintstones.S01E01.MULTi.1080p.BluRay.x264-NEWGENESiS.mkv
Format                                   : Matroska
Format version                           : Version 4
File size                                : 1.54 GiB
Duration                                 : 26 min 25 s
Overall bit rate                         : 8 329 kb/s
Encoded date                             : UTC 2020-11-11 14:09:18
Writing application                      : mkvmerge v51.0.0 ('I Wish') 64-bit
Writing library                          : libebml v1.4.0 + libmatroska v1.6.2

Video
ID                                       : 1
Format                                   : AVC
Format/Info                              : Advanced Video Codec
Format profile                           : High@L4.1
Format settings                          : CABAC / 5 Ref Frames
Format settings, CABAC                   : Yes
Format settings, Reference frames        : 5 frames
Codec ID                                 : V_MPEG4/ISO/AVC
Duration                                 : 26 min 25 s
Bit rate                                 : 7 908 kb/s
Width                                    : 1 440 pixels
Height                                   : 1 080 pixels
Display aspect ratio                     : 4:3
Frame rate mode                          : Constant
Frame rate                               : 23.976 (24000/1001) FPS
Color space                              : YUV
Chroma subsampling                       : 4:2:0
Bit depth                                : 8 bits
Scan type                                : Progressive
Bits/(Pixel*Frame)                       : 0.212
Stream size                              : 1.46 GiB (95%)
Title                                    : The.Flintstones.S01E01.MULTi.1080p.BluRay.x264-NEWGENESiS
Writing library                          : x264 core 161 r3018 db0d417
Encoding settings                        : cabac=1 / ref=5 / deblock=1:-3:-3 / analyse=0x3:0x133 / me=umh / subme=10 / psy=1 / psy_rd=1.00:0.00 /
                                           mixed_ref=1 / me_range=32 / chroma_me=1 / trellis=2 / 8x8dct=1 / cqm=0 / deadzone=21,11 / fast_pskip=0 /
                                           chroma_qp_offset=-2 / threads=24 / lookahead_threads=6 / sliced_threads=0 / nr=0 / decimate=0 /
                                           interlaced=0 / bluray_compat=0 / constrained_intra=0 / bframes=10 / b_pyramid=2 / b_adapt=2 / b_bias=0 /
                                           direct=3 / weightb=1 / open_gop=0 / weightp=2 / keyint=240 / keyint_min=23 / scenecut=40 /
                                           intra_refresh=0 / rc=crf / mbtree=0 / crf=20.0 / qcomp=0.60 / qpmin=0 / qpmax=69 / qpstep=4 /
                                           ip_ratio=1.35 / pb_ratio=1.25 / aq=3:0.60
Default                                  : Yes
Forced                                   : No
Color range                              : Limited
Matrix coefficients                      : BT.709

Audio #1
ID                                       : 2
Format                                   : AC-3
Format/Info                              : Audio Coding 3
Commercial name                          : Dolby Digital
Codec ID                                 : A_AC3
Duration                                 : 26 min 25 s
Bit rate mode                            : Constant
Bit rate                                 : 192 kb/s
Channel(s)                               : 2 channels
Channel layout                           : L R
Sampling rate                            : 48.0 kHz
Frame rate                               : 31.250 FPS (1536 SPF)
Compression mode                         : Lossy
Stream size                              : 36.3 MiB (2%)
Title                                    : French (AC3 2.0)
Language                                 : French
Service kind                             : Complete Main
Default                                  : Yes
Forced                                   : No

Audio #2
ID                                       : 3
Format                                   : AC-3
Format/Info                              : Audio Coding 3
Commercial name                          : Dolby Digital
Codec ID                                 : A_AC3
Duration                                 : 26 min 25 s
Bit rate mode                            : Constant
Bit rate                                 : 192 kb/s
Channel(s)                               : 2 channels
Channel layout                           : L R
Sampling rate                            : 48.0 kHz
Frame rate                               : 31.250 FPS (1536 SPF)
Compression mode                         : Lossy
Stream size                              : 36.3 MiB (2%)
Title                                    : English (AC3 2.0)
Language                                 : English
Service kind                             : Complete Main
Default                                  : No
Forced                                   : No

Text #1
ID                                       : 4
Format                                   : UTF-8
Codec ID                                 : S_TEXT/UTF8
Codec ID/Info                            : UTF-8 Plain Text
Duration                                 : 26 min 10 s
Bit rate                                 : 70 b/s
Count of elements                        : 371
Stream size                              : 13.5 KiB (0%)
Title                                    : French (SRT)
Language                                 : French
Default                                  : No
Forced                                   : No

Text #2
ID                                       : 5
Format                                   : PGS
Muxing mode                              : zlib
Codec ID                                 : S_HDMV/PGS
Codec ID/Info                            : Picture based subtitle format used on BDs/HD-DVDs
Duration                                 : 26 min 10 s
Bit rate                                 : 38.6 kb/s
Count of elements                        : 742
Stream size                              : 7.22 MiB (0%)
Title                                    : French (SUP)
Language                                 : French
Default                                  : No
Forced                                   : No

Text #3
ID                                       : 6
Format                                   : UTF-8
Codec ID                                 : S_TEXT/UTF8
Codec ID/Info                            : UTF-8 Plain Text
Duration                                 : 26 min 14 s
Bit rate                                 : 68 b/s
Count of elements                        : 420
Stream size                              : 13.2 KiB (0%)
Title                                    : English (SRT)
Language                                 : English
Default                                  : No
Forced                                   : No

Text #4
ID                                       : 7
Format                                   : PGS
Muxing mode                              : zlib
Codec ID                                 : S_HDMV/PGS
Codec ID/Info                            : Picture based subtitle format used on BDs/HD-DVDs
Duration                                 : 26 min 14 s
Bit rate                                 : 43.0 kb/s
Count of elements                        : 922
Stream size                              : 8.07 MiB (1%)
Title                                    : English SDH (SUP)
Language                                 : English
Default                                  : No
Forced                                   : No

Menu
00:00:00.000                             : en:Chapter 01
00:01:21.039                             : en:Chapter 02
00:03:48.728                             : en:Chapter 03
00:09:25.523                             : en:Chapter 04
00:14:44.717                             : en:Chapter 05
00:18:54.759                             : en:Chapter 06
00:25:24.481                             : en:Chapter 07