Rascal Does Not Dream of Bunny Girl Senpai 1080p VOSTFR


Il existe une rumeur, cette dernière concerne un mystérieux phénomène appelé « syndrome de l’adolescence ».

Sakuta Azusagawa est un jeune lycéen qui fait la rencontre de Mai Sakurajima, alors qu’elle se promène dans une bibliothèque déguisée en « bunny girl ». Pour une raison étrange, les gens autour d’elle ne peuvent plus la voir.

Mai est en fait son aînée au lycée ainsi qu’une ancienne actrice célèbre qui s’est retirée de l’industrie du cinéma suite à un désaccord avec sa mère.

Pourquoi était-elle devenue invisible et comment régler ce problème ?

En cherchant à résoudre ce mystère, Sakuta va commencer à comprendre la complexité des sentiments de Mai.

Rascal.Does.Not.Dream.of.Bunny.Girl.Senpai.S01.SUBFRENCH.1080p.WEB.x264-RiPiT

mot de passe : bunny
Source..: Wakanim (Untouched)
TMDb....: https://www.themoviedb.org/tv/82739

Contact.: ripitcontact@protonmail.com
 
----------------------------------------------------------------------------------------------------------------------------
 
General
Complete name                            : Rascal.Does.Not.Dream.of.Bunny.Girl.Senpai.E01.SUBFRENCH.1080p.WEB.x264-RiPiT.mkv
Format                                   : Matroska
Format version                           : Version 4
File size                                : 758 MiB
Duration                                 : 25 min 7 s
Overall bit rate                         : 4 217 kb/s
Movie name                               : Rascal.Does.Not.Dream.of.Bunny.Girl.Senpai.E01.SUBFRENCH.1080p.WEB.x264-RiPiT
Encoded date                             : UTC 2015-04-01 20:00:00
Writing application                      : mkvmerge v38.0.0 ('The Silent Type') 64-bit
Writing library                          : libebml v1.3.9 + libmatroska v1.5.2

Video
ID                                       : 1
Format                                   : AVC
Format/Info                              : Advanced Video Codec
Format profile                           : High@L4
Format settings                          : CABAC / 4 Ref Frames
Format settings, CABAC                   : Yes
Format settings, Reference frames        : 4 frames
Codec ID                                 : V_MPEG4/ISO/AVC
Duration                                 : 25 min 7 s
Bit rate                                 : 4 100 kb/s
Width                                    : 1 920 pixels
Height                                   : 1 080 pixels
Display aspect ratio                     : 16:9
Frame rate mode                          : Constant
Frame rate                               : 23.976 (23976/1000) FPS
Color space                              : YUV
Chroma subsampling                       : 4:2:0
Bit depth                                : 8 bits
Scan type                                : Progressive
Bits/(Pixel*Frame)                       : 0.082
Stream size                              : 734 MiB (97%)
Writing library                          : x264 core 155 r2721+211 1714ae4
Encoding settings                        : cabac=1 / ref=3 / deblock=1:0:0 / analyse=0x3:0x113 / me=hex / subme=6 / psy=1 / psy_rd=1.00:0.00 / mixed_ref=0 / me_range=16 / chroma_me=1 / trellis=1 / 8x8dct=1 / cqm=0 / deadzone=21,11 / fast_pskip=1 / chroma_qp_offset=-2 / threads=24 / lookahead_threads=4 / sliced_threads=0 / nr=0 / decimate=1 / interlaced=0 / bluray_compat=0 / constrained_intra=0 / bframes=3 / b_pyramid=2 / b_adapt=1 / b_bias=0 / direct=1 / weightb=1 / open_gop=0 / weightp=2 / keyint=48 / keyint_min=4 / scenecut=0 / intra_refresh=0 / rc_lookahead=40 / rc=abr / mbtree=1 / bitrate=4100 / ratetol=1.0 / qcomp=0.60 / qpmin=0 / qpmax=69 / qpstep=4 / vbv_maxrate=4700 / vbv_bufsize=23500 / nal_hrd=none / filler=0 / ip_ratio=1.40 / aq=1:1.00
Default                                  : Yes
Forced                                   : No

Audio
ID                                       : 2
Format                                   : AAC LC
Format/Info                              : Advanced Audio Codec Low Complexity
Codec ID                                 : A_AAC-2
Duration                                 : 25 min 7 s
Bit rate                                 : 132 kb/s
Channel(s)                               : 2 channels
Channel layout                           : L R
Sampling rate                            : 48.0 kHz
Frame rate                               : 46.875 FPS (1024 SPF)
Compression mode                         : Lossy
Delay relative to video                  : -21 ms
Stream size                              : 23.4 MiB (3%)
Language                                 : Japanese
Default                                  : Yes
Forced                                   : No