Rent-A-Girlfriend 720p/1080p VOSTFR


Largué par sa petite-amie, Kazuya Kinoshita tente de combler le vide dans son cœur à l’aide d’une application en vogue permettant de louer une nouvelle copine. C’est ainsi qu’il fait la rencontre de Chizuru Mizuhara, une jeune fille à première vue parfaite possédant tout ce que le jeune homme recherche : très belle et avec une personnalité mignonne et attentionnée. Il va cependant rapidement se rendre compte de la vraie personnalité de Mizuhara.

Rent.a.Girlfriend.S01.CUSTOM.SUBFRENCH.1080p.BluRay.x264-RiPiT

mot de passe : rent
Source........: FULL BD JAP
Sous-titres...: Crunchyroll (Resync)
TMDb..........: https://www.themoviedb.org/tv/96316

Team Note.....: We're looking for contacts, tools, or some help for Netflix, Amazon, widevine / playready stuff, please send a mail

Contact.......: ripitcontact@protonmail.com
 
-------------------------------------------------------------------------------------------------------------
 
General
Complete name                            : Rent.a.Girlfriend.E01.CUSTOM.SUBFRENCH.1080p.BluRay.x264-RiPiT.mkv
Format                                   : Matroska
Format version                           : Version 4
File size                                : 1.46 GiB
Duration                                 : 24 min 27 s
Overall bit rate                         : 8 555 kb/s
Movie name                               : Rent.a.Girlfriend.E01.CUSTOM.SUBFRENCH.1080p.BluRay.x264-RiPiT
Encoded date                             : UTC 2015-04-01 20:00:00
Writing application                      : mkvmerge v38.0.0 ('The Silent Type') 64-bit
Writing library                          : libebml v1.3.9 + libmatroska v1.5.2

Video
ID                                       : 1
Format                                   : AVC
Format/Info                              : Advanced Video Codec
Format profile                           : High@L4.1
Format settings                          : CABAC / 4 Ref Frames
Format settings, CABAC                   : Yes
Format settings, Reference frames        : 4 frames
Codec ID                                 : V_MPEG4/ISO/AVC
Duration                                 : 24 min 27 s
Bit rate                                 : 8 107 kb/s
Width                                    : 1 920 pixels
Height                                   : 1 080 pixels
Display aspect ratio                     : 16:9
Frame rate mode                          : Constant
Frame rate                               : 23.976 (24000/1001) FPS
Color space                              : YUV
Chroma subsampling                       : 4:2:0
Bit depth                                : 8 bits
Scan type                                : Progressive
Bits/(Pixel*Frame)                       : 0.163
Stream size                              : 1.38 GiB (95%)
Writing library                          : x264 core 161
Encoding settings                        : cabac=1 / ref=4 / deblock=1:-1:-1 / analyse=0x3:0x113 / me=umh / subme=10 / psy=1 / psy_rd=1.00:0.00 / mixed_ref=1 / me_range=16 / chroma_me=1 / trellis=2 / 8x8dct=1 / cqm=0 / deadzone=21,11 / fast_pskip=0 / chroma_qp_offset=-2 / threads=24 / lookahead_threads=2 / sliced_threads=0 / nr=0 / decimate=1 / interlaced=0 / bluray_compat=0 / constrained_intra=0 / bframes=3 / b_pyramid=2 / b_adapt=1 / b_bias=0 / direct=3 / weightb=1 / open_gop=0 / weightp=2 / keyint=240 / keyint_min=23 / scenecut=40 / intra_refresh=0 / rc_lookahead=50 / rc=2pass / mbtree=1 / bitrate=8107 / ratetol=1.0 / qcomp=0.60 / qpmin=0 / qpmax=69 / qpstep=4 / cplxblur=20.0 / qblur=0.5 / ip_ratio=1.40 / aq=1:1.00
Default                                  : Yes
Forced                                   : No

Audio
ID                                       : 2
Format                                   : AC-3
Format/Info                              : Audio Coding 3
Commercial name                          : Dolby Digital
Codec ID                                 : A_AC3
Duration                                 : 24 min 27 s
Bit rate mode                            : Constant
Bit rate                                 : 448 kb/s
Channel(s)                               : 2 channels
Channel layout                           : L R
Sampling rate                            : 48.0 kHz
Frame rate                               : 31.250 FPS (1536 SPF)
Compression mode                         : Lossy
Stream size                              : 78.3 MiB (5%)
Language                                 : Japanese
Service kind                             : Complete Main
Default                                  : Yes
Forced                                   : No

Text
ID                                       : 3
Format                                   : ASS
Codec ID                                 : S_TEXT/ASS
Codec ID/Info                            : Advanced Sub Station Alpha
Duration                                 : 24 min 23 s
Bit rate                                 : 158 b/s
Count of elements                        : 410
Compression mode                         : Lossless
Stream size                              : 28.4 KiB (0%)
Language                                 : French
Default                                  : Yes
Forced                                   : No

Menu
00:00:00.000                             : en:Chapitre 01
00:02:11.005                             : en:Chapitre 02
00:10:42.058                             : en:Chapitre 03
00:22:20.630                             : en:Chapitre 04
00:23:56.977                             : en:Chapitre 05

Rent.a.Girlfriend.S01.CUSTOM.SUBFRENCH.720p.BluRay.x264-RiPiT

mot de passe : rent
Source........: FULL BD JAP
Sous-titres...: Crunchyroll (Resync)
TMDb..........: https://www.themoviedb.org/tv/96316

Team Note.....: We're looking for contacts, tools, or some help for Netflix, Amazon, widevine / playready stuff, please send a mail

Contact.......: ripitcontact@protonmail.com
 
------------------------------------------------------------------------------------------------------------
 
General
Complete name                            : Rent.a.Girlfriend.E01.CUSTOM.SUBFRENCH.720p.BluRay.x264-RiPiT.mkv
Format                                   : Matroska
Format version                           : Version 4
File size                                : 894 MiB
Duration                                 : 24 min 27 s
Overall bit rate                         : 5 111 kb/s
Movie name                               : Rent.a.Girlfriend.E01.CUSTOM.SUBFRENCH.720p.BluRay.x264-RiPiT
Encoded date                             : UTC 2015-04-01 20:00:00
Writing application                      : mkvmerge v38.0.0 ('The Silent Type') 64-bit
Writing library                          : libebml v1.3.9 + libmatroska v1.5.2

Video
ID                                       : 1
Format                                   : AVC
Format/Info                              : Advanced Video Codec
Format profile                           : High@L4.1
Format settings                          : CABAC / 9 Ref Frames
Format settings, CABAC                   : Yes
Format settings, Reference frames        : 9 frames
Codec ID                                 : V_MPEG4/ISO/AVC
Duration                                 : 24 min 27 s
Bit rate                                 : 4 662 kb/s
Width                                    : 1 280 pixels
Height                                   : 720 pixels
Display aspect ratio                     : 16:9
Frame rate mode                          : Constant
Frame rate                               : 23.976 (24000/1001) FPS
Color space                              : YUV
Chroma subsampling                       : 4:2:0
Bit depth                                : 8 bits
Scan type                                : Progressive
Bits/(Pixel*Frame)                       : 0.211
Stream size                              : 815 MiB (91%)
Writing library                          : x264 core 161
Encoding settings                        : cabac=1 / ref=9 / deblock=1:-1:-1 / analyse=0x3:0x113 / me=umh / subme=10 / psy=1 / psy_rd=1.00:0.00 / mixed_ref=1 / me_range=16 / chroma_me=1 / trellis=2 / 8x8dct=1 / cqm=0 / deadzone=21,11 / fast_pskip=0 / chroma_qp_offset=-2 / threads=22 / lookahead_threads=1 / sliced_threads=0 / nr=0 / decimate=1 / interlaced=0 / bluray_compat=0 / constrained_intra=0 / bframes=3 / b_pyramid=2 / b_adapt=1 / b_bias=0 / direct=3 / weightb=1 / open_gop=0 / weightp=2 / keyint=240 / keyint_min=23 / scenecut=40 / intra_refresh=0 / rc_lookahead=50 / rc=2pass / mbtree=1 / bitrate=4662 / ratetol=1.0 / qcomp=0.60 / qpmin=0 / qpmax=69 / qpstep=4 / cplxblur=20.0 / qblur=0.5 / ip_ratio=1.40 / aq=1:1.00
Default                                  : Yes
Forced                                   : No

Audio
ID                                       : 2
Format                                   : AC-3
Format/Info                              : Audio Coding 3
Commercial name                          : Dolby Digital
Codec ID                                 : A_AC3
Duration                                 : 24 min 27 s
Bit rate mode                            : Constant
Bit rate                                 : 448 kb/s
Channel(s)                               : 2 channels
Channel layout                           : L R
Sampling rate                            : 48.0 kHz
Frame rate                               : 31.250 FPS (1536 SPF)
Compression mode                         : Lossy
Stream size                              : 78.3 MiB (9%)
Language                                 : Japanese
Service kind                             : Complete Main
Default                                  : Yes
Forced                                   : No

Text
ID                                       : 3
Format                                   : ASS
Codec ID                                 : S_TEXT/ASS
Codec ID/Info                            : Advanced Sub Station Alpha
Duration                                 : 24 min 23 s
Bit rate                                 : 158 b/s
Count of elements                        : 410
Compression mode                         : Lossless
Stream size                              : 28.4 KiB (0%)
Language                                 : French
Default                                  : Yes
Forced                                   : No

Menu
00:00:00.000                             : en:Chapitre 01
00:02:11.005                             : en:Chapitre 02
00:10:42.058                             : en:Chapitre 03
00:22:20.630                             : en:Chapitre 04
00:23:56.977                             : en:Chapitre 05