Ikebukuro West Gate Park 1080p VOSTFR


Bienvenue à Ikebukuro West Gate Park. Un square ouvert aux aventuriers urbains, à la sortie ouest de la gare d’lkebukuro. C’est là que Makoto et ses amis ont établi leur QG. Makoto a dix-neuf ans, et c’est un trouble shooter, un « solutionneur d’embrouilles ». Des embrouilles, il n’en manque pas dans ce quartier où se rencontrent gamins à la dérive, yakuzas, filles perdues et clandestins dans le Japon de l’envers. Avec pour seules armes son énergie et sa débrouillardise, Makoto résout les énigmes, vient en aide à ceux qui sont dans la détresse, et tente de ramener la paix dans les rues menacées par une sanglante guerre des gangs.
 

Ikebukuro.West.Gate.Park.S01.SUBFRENCH.1080p.WEB.x264-RiPiT

mot de passe : park
Source....: Wakanim (Untouched)
TMDb......: https://www.themoviedb.org/tv/98867

Team Note.: We're looking for contacts, tools, or some help for Netflix, Amazon, widevine / playready stuff, please send a mail

Contact...: ripitcontact@protonmail.com
 
----------------------------------------------------------------------------------------------------------------
 
General
Complete name                            : Ikebukuro.West.Gate.Park.E12.FiNAL.SUBFRENCH.1080p.WEB.x264-RiPiT.mkv
Format                                   : Matroska
Format version                           : Version 4
File size                                : 717 MiB
Duration                                 : 23 min 48 s
Overall bit rate                         : 4 214 kb/s
Movie name                               : Ikebukuro.West.Gate.Park.E12.FiNAL.SUBFRENCH.1080p.WEB.x264-RiPiT
Encoded date                             : UTC 2015-04-01 20:00:00
Writing application                      : mkvmerge v38.0.0 ('The Silent Type') 64-bit
Writing library                          : libebml v1.3.9 + libmatroska v1.5.2

Video
ID                                       : 1
Format                                   : AVC
Format/Info                              : Advanced Video Codec
Format profile                           : High@L4
Format settings                          : CABAC / 4 Ref Frames
Format settings, CABAC                   : Yes
Format settings, Reference frames        : 4 frames
Codec ID                                 : V_MPEG4/ISO/AVC
Duration                                 : 23 min 48 s
Bit rate                                 : 4 100 kb/s
Width                                    : 1 920 pixels
Height                                   : 1 080 pixels
Display aspect ratio                     : 16:9
Frame rate mode                          : Constant
Frame rate                               : 23.976 (24000/1001) FPS
Color space                              : YUV
Chroma subsampling                       : 4:2:0
Bit depth                                : 8 bits
Scan type                                : Progressive
Bits/(Pixel*Frame)                       : 0.082
Stream size                              : 695 MiB (97%)
Writing library                          : x264 core 155
Encoding settings                        : cabac=1 / ref=3 / deblock=1:0:0 / analyse=0x3:0x113 / me=hex / subme=6 / psy=1 / psy_rd=1.00:0.00 / mixed_ref=0 / me_range=16 / chroma_me=1 / trellis=1 / 8x8dct=1 / cqm=0 / deadzone=21,11 / fast_pskip=1 / chroma_qp_offset=-2 / threads=24 / lookahead_threads=4 / sliced_threads=0 / nr=0 / decimate=1 / interlaced=0 / bluray_compat=0 / constrained_intra=0 / bframes=3 / b_pyramid=2 / b_adapt=1 / b_bias=0 / direct=1 / weightb=1 / open_gop=0 / weightp=2 / keyint=250 / keyint_min=23 / scenecut=0 / intra_refresh=0 / rc_lookahead=40 / rc=abr / mbtree=1 / bitrate=4100 / ratetol=1.0 / qcomp=0.60 / qpmin=0 / qpmax=69 / qpstep=4 / vbv_maxrate=4700 / vbv_bufsize=23500 / nal_hrd=none / filler=0 / ip_ratio=1.40 / aq=1:1.00
Default                                  : Yes
Forced                                   : No

Audio
ID                                       : 2
Format                                   : AAC LC
Format/Info                              : Advanced Audio Codec Low Complexity
Codec ID                                 : A_AAC-2
Duration                                 : 23 min 48 s
Bit rate                                 : 132 kb/s
Channel(s)                               : 2 channels
Channel layout                           : L R
Sampling rate                            : 48.0 kHz
Frame rate                               : 46.875 FPS (1024 SPF)
Compression mode                         : Lossy
Delay relative to video                  : -21 ms
Stream size                              : 22.2 MiB (3%)
Language                                 : Japanese
Default                                  : Yes
Forced                                   : No