Kuma Kuma Kuma Bear 1080p VOSTFR


L’histoire nous entraîne dans le quotidien de Yuna, une jeune fille de 15 ans qui vient de commencer à jouer au premier VRMMO du monde. Après avoir gagné plusieurs milliards de yens, elle décide de se confiner chez elle pour jouer toute la journée sans même aller à l’école.

Aujourd’hui est grand jour pour l’histoire de ce jeu car une mise à jour majeure est arrivée ! Ainsi, elle reçoit une rare tenue d’ours non transférable. Cependant, cette tenue est bien trop gênante pour Yuna et elle ne peut se permettre de la porter, même en jeu. De plus, après avoir répondu à un sondage concernant cette nouvelle mise à jour, elle apparaît dans une forêt inconnue en portant la fameuse tenue.

Yuna va donc commencer son aventure en faisant ce qu’elle désire.

Kuma.Kuma.Kuma.Bear.SUBFRENCH.1080p.WEB.x264-RiPiT

mot de passe : bear
Source....: Wakanim (Untouched)
TMDb......: https://www.themoviedb.org/tv/97782

Team Note.: We're looking for contacts, tools, or some help for Netflix, Amazon, widevine / playready stuff, please send a mail

Contact...: ripitcontact@protonmail.com
 
-----------------------------------------------------------------------------------------------------------
 
General
Complete name                            : Kuma.Kuma.Kuma.Bear.E12.FiNAL.SUBFRENCH.1080p.WEB.x264-RiPiT.mkv
Format                                   : Matroska
Format version                           : Version 4
File size                                : 714 MiB
Duration                                 : 23 min 48 s
Overall bit rate                         : 4 193 kb/s
Movie name                               : Kuma.Kuma.Kuma.Bear.E12.FiNAL.SUBFRENCH.1080p.WEB.x264-RiPiT
Encoded date                             : UTC 2015-04-01 20:00:00
Writing application                      : mkvmerge v38.0.0 ('The Silent Type') 64-bit
Writing library                          : libebml v1.3.9 + libmatroska v1.5.2

Video
ID                                       : 1
Format                                   : AVC
Format/Info                              : Advanced Video Codec
Format profile                           : High@L4
Format settings                          : CABAC / 4 Ref Frames
Format settings, CABAC                   : Yes
Format settings, Reference frames        : 4 frames
Codec ID                                 : V_MPEG4/ISO/AVC
Duration                                 : 23 min 48 s
Bit rate                                 : 4 100 kb/s
Width                                    : 1 920 pixels
Height                                   : 1 080 pixels
Display aspect ratio                     : 16:9
Frame rate mode                          : Constant
Frame rate                               : 23.976 (24000/1001) FPS
Color space                              : YUV
Chroma subsampling                       : 4:2:0
Bit depth                                : 8 bits
Scan type                                : Progressive
Bits/(Pixel*Frame)                       : 0.082
Stream size                              : 691 MiB (97%)
Writing library                          : x264 core 155
Encoding settings                        : cabac=1 / ref=3 / deblock=1:0:0 / analyse=0x3:0x113 / me=hex / subme=6 / psy=1 / psy_rd=1.00:0.00 / mixed_ref=0 / me_range=16 / chroma_me=1 / trellis=1 / 8x8dct=1 / cqm=0 / deadzone=21,11 / fast_pskip=1 / chroma_qp_offset=-2 / threads=24 / lookahead_threads=4 / sliced_threads=0 / nr=0 / decimate=1 / interlaced=0 / bluray_compat=0 / constrained_intra=0 / bframes=3 / b_pyramid=2 / b_adapt=1 / b_bias=0 / direct=1 / weightb=1 / open_gop=0 / weightp=2 / keyint=250 / keyint_min=23 / scenecut=0 / intra_refresh=0 / rc_lookahead=40 / rc=abr / mbtree=1 / bitrate=4100 / ratetol=1.0 / qcomp=0.60 / qpmin=0 / qpmax=69 / qpstep=4 / vbv_maxrate=4700 / vbv_bufsize=23500 / nal_hrd=none / filler=0 / ip_ratio=1.40 / aq=1:1.00
Default                                  : Yes
Forced                                   : No

Audio
ID                                       : 2
Format                                   : AAC LC
Format/Info                              : Advanced Audio Codec Low Complexity
Codec ID                                 : A_AAC-2
Duration                                 : 23 min 48 s
Bit rate                                 : 129 kb/s
Channel(s)                               : 2 channels
Channel layout                           : L R
Sampling rate                            : 48.0 kHz
Frame rate                               : 46.875 FPS (1024 SPF)
Compression mode                         : Lossy
Delay relative to video                  : -21 ms
Stream size                              : 22.0 MiB (3%)
Language                                 : Japanese
Default                                  : Yes
Forced                                   : No