Date A Live 1080p VOSTFR


Itsuka Shido est un jeune lycéen vivant une vie paisible jusqu’à ce qu’une explosion détruise la ville et qu’une jeune fille en armure apparaisse devant lui. Quelques instants après, sa sœur adoptive Kotori, qui est en réalité commandante de l’organisation militaire Ratatoskr, lui apprend que la fille en question est un esprit qui déstabilise l’espace-temps.

Le seul moyen d’arrêter cette menace est que Shido utilise son mystérieux pouvoir lui permettant de sceller les pouvoirs d’un esprit dans son corps. Cependant, cette méthode ne fonctionne que si l’esprit l’affectionne et a confiance en lui.

Ainsi, l’organisation Ratatoskr va lui proposer sortir avec cet esprit pour gagner sa confiance et son affection.

Date.A.Live.2013.VOSTFR.1080p.BluRay.x264-Kanojo.X.Otome

mot de passe : date
General
Complete name                            : [Kanojo X Otome] Date A Live - 01 Bluray Full HD.mp4
Format                                   : MPEG-4
Format profile                           : Base Media
Codec ID                                 : isom
File size                                : 867 MiB
Duration                                 : 27mn 43s
Overall bit rate mode                    : Variable
Overall bit rate                         : 4 373 Kbps
Encoded date                             : UTC 2013-09-29 17:36:50
Tagged date                              : UTC 2013-09-29 17:36:50

Video
ID                                       : 1
Format                                   : AVC
Format/Info                              : Advanced Video Codec
Format profile                           : High@L4.1
Format settings, CABAC                   : Yes
Format settings, ReFrames                : 5 frames
Codec ID                                 : avc1
Codec ID/Info                            : Advanced Video Coding
Duration                                 : 27mn 43s
Bit rate mode                            : Variable
Bit rate                                 : 3 969 Kbps
Maximum bit rate                         : 25.0 Mbps
Width                                    : 1 920 pixels
Height                                   : 1 080 pixels
Display aspect ratio                     : 16:9
Frame rate mode                          : Constant
Frame rate                               : 23.976 fps
Standard                                 : NTSC
Color space                              : YUV
Chroma subsampling                       : 4:2:0
Bit depth                                : 8 bits
Scan type                                : Progressive
Bits/(Pixel*Frame)                       : 0.080
Stream size                              : 787 MiB (91%)
Title                                    : Video
Writing library                          : x264 core 116 r2074kMod 2641b9e
Encoding settings                        : cabac=1 / ref=5 / deblock=1:0:1 / analyse=0x3:0x133 / me=hex / subme=8 / psy=1 / fade_compensate=0.25 / psy_rd=1.00:0.25 / mixed_ref=1 / me_range=16 / chroma_me=1 / trellis=2 / 8x8dct=1 / cqm=2 / deadzone=32,16 / fast_pskip=0 / chroma_qp_offset=0 / threads=6 / sliced_threads=0 / slices=4 / nr=0 / decimate=0 / interlaced=0 / bluray_compat=0 / constrained_intra=0 / bframes=5 / b_pyramid=2 / b_adapt=2 / b_bias=100 / direct=3 / weightb=1 / open_gop=0 / weightp=2 / keyint=250 / keyint_min=23 / scenecut=50 / intra_refresh=0 / rc_lookahead=250 / rc=crf / mbtree=1 / crf=19.0000 / qcomp=0.75 / qpmin=15 / qpmax=68 / qpstep=4 / vbv_maxrate=25000 / vbv_bufsize=25000 / crf_max=0.0 / nal_hrd=vbr / ip_ratio=1.40 / aq=1:1.00
Encoded date                             : UTC 2013-09-29 17:36:50
Tagged date                              : UTC 2013-09-29 17:37:12
Color primaries                          : BT.709
Transfer characteristics                 : BT.709
Matrix coefficients                      : BT.709

Audio
ID                                       : 2
Format                                   : AAC
Format/Info                              : Advanced Audio Codec
Format profile                           : LC
Codec ID                                 : 40
Duration                                 : 27mn 43s
Bit rate mode                            : Variable
Bit rate                                 : 400 Kbps
Maximum bit rate                         : 471 Kbps
Channel(s)                               : 2 channels
Channel positions                        : Front: L R
Sampling rate                            : 48.0 KHz
Compression mode                         : Lossy
Stream size                              : 79.3 MiB (9%)
Language                                 : Japanese
Encoded date                             : UTC 2013-09-29 17:37:10
Tagged date                              : UTC 2013-09-29 17:37:12