Timon & Pumbaa 1080p VF


Cette série met en scène les aventures de Timon, le suricate et Pumbaa, le phacochère, personnages du Roi lion. C’est d’ailleurs la seule fois dans l’univers du Roi lion dans lequel des humains apparaissent.

Timon And Pumbaa.S01.TRUEFRENCH.1080p.WEB-DL.H264-FTMVHD

mot de passe : timon
VIDEO...: 1080p WEB-DL DISNEY + # MZABI
AUDIO...: AC3 2.0 DISNEY + # FTMVHD
SUBS....: AUCUN

Unique ID                      : 17652309959449849844459442127535959543 (0xD47B6136BF1A34E1C7653E92DF16DF7)
Complete name                  : Timon And Pumbaa.S01E01.TRUEFRENCH.1080p.WEB-DL.H264-FTMVHD.mkv
Format                         : Matroska
Format version                 : Version 4
File size                      : 1.38 GiB
Duration                       : 22 min 40 s
Overall bit rate mode          : Variable
Overall bit rate               : 8 689 kb/s
Movie name                     : Timon And Pumbaa.S01E01.TRUEFRENCH.1080p.WEB-DL.H264-FTMVHD
Encoded date                   : UTC 2021-02-01 20:51:52
Writing application            : mkvmerge v52.0.0 ('Secret For The Mad') 64-bit
Writing library                : libebml v1.4.1 + libmatroska v1.6.2

Video
ID                             : 1
Format                         : AVC
Format/Info                    : Advanced Video Codec
Format profile                 : High@L4
Format settings                : CABAC / 4 Ref Frames
Format settings, CABAC         : Yes
Format settings, Reference fra : 4 frames
Codec ID                       : V_MPEG4/ISO/AVC
Duration                       : 22 min 39 s
Bit rate mode                  : Variable
Bit rate                       : 8 495 kb/s
Maximum bit rate               : 12.7 Mb/s
Width                          : 1 920 pixels
Height                         : 1 080 pixels
Display aspect ratio           : 16:9
Frame rate mode                : Constant
Frame rate                     : 23.976 (24000/1001) FPS
Color space                    : YUV
Chroma subsampling             : 4:2:0
Bit depth                      : 8 bits
Scan type                      : Progressive
Bits/(Pixel*Frame)             : 0.171
Stream size                    : 1.34 GiB (98%)
Title                          : 1080p WEB-DL Disney +
Language                       : English
Default                        : Yes
Forced                         : No
Color range                    : Limited
Color primaries                : BT.709
Transfer characteristics       : BT.709
Matrix coefficients            : BT.709

Audio
ID                             : 2
Format                         : AC-3
Format/Info                    : Audio Coding 3
Commercial name                : Dolby Digital
Codec ID                       : A_AC3
Duration                       : 22 min 40 s
Bit rate mode                  : Constant
Bit rate                       : 192 kb/s
Channel(s)                     : 2 channels
Channel layout                 : L R
Sampling rate                  : 48.0 kHz
Frame rate                     : 31.250 FPS (1536 SPF)
Compression mode               : Lossy
Stream size                    : 31.1 MiB (2%)
Title                          : FR AC3 2.0
Language                       : French
Service kind                   : Complete Main
Default                        : Yes
Forced                         : No