Denver Le Dernier Dinosaure TVRip VF


Une bande d’adolescents californiens (Wally, Jérémy, Charlie et Mario) découvre sur un terrain vague un œuf de dinosaure. Cet œuf donnera naissance à un dinosaure qu’ils appelleront Denver. Denver est un dinosaure hors norme qui aime la guitare et le skateboard. Il peut voyager dans la préhistoire grâce à un morceau de sa coquille. Mais Denver, caché par ses amis, a un ennemi en la personne de Morton Fizzback qui veut devenir riche et célèbre en le capturant.

Denver.le.dernier.dinosaure.Intégrale.VF.LD.TVRip.XviD

mot de passe : denver
General

Format                         : AVI

Format/Info                    : Audio Video Interleave

File size                      : 10.5 MiB

Duration                       : 1mn 22s

Overall bit rate               : 1 066 Kbps

Writing library                : VirtualDub build 18160/release



Video

ID                             : 0

Format                         : MPEG-4 Visual

Format profile                 : Advanced Simple@L5

Format settings, BVOP          : 2

Format settings, QPel          : No

Format settings, GMC           : No warppoints

Format settings, Matrix        : Default (H.263)

Muxing mode                    : Packed bitstream

Codec ID                       : XVID

Codec ID/Hint                  : XviD

Duration                       : 1mn 22s

Bit rate                       : 960 Kbps

Width                          : 640 pixels

Height                         : 480 pixels

Display aspect ratio           : 4:3

Frame rate                     : 25.000 fps

Color space                    : YUV

Chroma subsampling             : 4:2:0

Bit depth                      : 8 bits

Scan type                      : Progressive

Compression mode               : Lossy

Bits/(Pixel*Frame)             : 0.125

Stream size                    : 9.44 MiB (90%)

Writing library                : XviD 1.0.3 (UTC 2004-12-20)



Audio

ID                             : 1

Format                         : MPEG Audio

Format version                 : Version 1

Format profile                 : Layer 3

Mode                           : Joint stereo

Mode extension                 : MS Stereo

Codec ID                       : 55

Codec ID/Hint                  : MP3

Duration                       : 1mn 22s

Bit rate mode                  : Constant

Bit rate                       : 96.0 Kbps

Channel(s)                     : 2 channels

Sampling rate                  : 48.0 KHz

Compression mode               : Lossy

Stream size                    : 968 KiB (9%)

Alignment                      : Split accross interleaves

Interleave, duration           : 40 ms (1.00 video frame)

Interleave, preload duration   : 500 ms