Anohana: The Flower We Saw That Day 1080p VOSTFR


L’histoire nous entraîne aux côtés de Jin-tan, Anaru, Yukiatsu, Tsuruko, Poppo et Menma, 3 jeunes filles et 3 jeunes garçons inséparables vivant à la campagne. Malheureusement, après un accident mortel qui est arrivé à Menma, le groupe d’amis se sépare. Suite à ces événements, chacun a choisi un chemin différent : Anaru passe la plupart de son temps avec ses amies, Poppo rêve de voyage, Yukiatsu et Tsuruko sont dans le même lycée et restent toujours ensemble et Jin-tan est devenu un Hikikomori.

Un jour, l’esprit de Menma revient chez Jintan en été sans aucune explication, et ne pourra partir que lorsque Jintan aura réalisé son vœux. Jintan est le seul capable de voir Menma. Pensant que c’est à cause de son traumatisme dû à la disparition de cette dernière, il se dit alors qu’elle n’est qu’une hallucination. Mais malgré cela, il va tout faire pour réaliser le souhait de la jeune fille disparue, et va ainsi reformer son ancien groupe d’amis. Au départ, ils pensent que Jintan est devenu fou. Mais ils réaliseront que leur désir de réaliser le vœu de leur amie défunte est bien réel, et que leur ami Jintan ne mentait pas en disant la voir et lui parler.

Ano.Hi.Mita.Hana.no.Namae.o.Bokutachi.wa.Mada.Shiranai.2011.iNTEGRAL.VOSTFR.1080p.BluRay.x264-Azurpyro

mot de passe : anohana
General
Complete name                            : Ano Hi Mita Hana no Namae o Bokutachi wa Shiranai 01 ~ (1080p) ~ [Azurpyro].mp4
Format                                   : MPEG-4
Format profile                           : Base Media
Codec ID                                 : isom
File size                                : 357 MiB
Duration                                 : 24mn 36s
Overall bit rate mode                    : Variable
Overall bit rate                         : 2 031 Kbps
Encoded date                             : UTC 2011-06-29 09:19:39
Tagged date                              : UTC 2011-06-29 09:19:39

Video
ID                                       : 1
Format                                   : AVC
Format/Info                              : Advanced Video Codec
Format profile                           : High@L4.0
Format settings, CABAC                   : Yes
Format settings, ReFrames                : 3 frames
Codec ID                                 : avc1
Codec ID/Info                            : Advanced Video Coding
Duration                                 : 24mn 35s
Bit rate mode                            : Variable
Bit rate                                 : 1 912 Kbps
Maximum bit rate                         : 20.0 Mbps
Width                                    : 1 920 pixels
Height                                   : 1 080 pixels
Display aspect ratio                     : 16:9
Frame rate mode                          : Constant
Frame rate                               : 23.976 fps
Standard                                 : NTSC
Color space                              : YUV
Chroma subsampling                       : 4:2:0
Bit depth                                : 8 bits
Scan type                                : Progressive
Bits/(Pixel*Frame)                       : 0.038
Stream size                              : 337 MiB (94%)
Title                                    : Video
Writing library                          : x264 core 115 r1947kMod b5a8ad7
Encoding settings                        : cabac=1 / ref=4 / deblock=1:1:1 / analyse=0x3:0x113 / me=hex / subme=8 / psy=1 / fade_compensate=0.00 / psy_rd=1.00:0.00 / mixed_ref=1 / me_range=16 / chroma_me=1 / trellis=2 / 8x8dct=1 / cqm=0 / deadzone=21,11 / fast_pskip=1 / chroma_qp_offset=-2 / threads=3 / sliced_threads=0 / nr=0 / decimate=1 / interlaced=0 / bluray_compat=0 / constrained_intra=0 / bframes=3 / b_pyramid=1 / b_adapt=2 / b_bias=0 / direct=1 / weightb=1 / open_gop=0 / weightp=2 / keyint=240 / keyint_min=24 / scenecut=40 / intra_refresh=0 / rc_lookahead=40 / rc=2pass / mbtree=1 / bitrate=1912 / ratetol=1.0 / qcomp=0.60 / qpmin=0 / qpmax=69 / qpstep=4 / cplxblur=20.0 / qblur=0.5 / vbv_maxrate=20000 / vbv_bufsize=25000 / nal_hrd=vbr / ip_ratio=1.40 / aq=1:1.00
Encoded date                             : UTC 2011-06-29 09:19:39
Tagged date                              : UTC 2011-06-29 09:19:47
Color primaries                          : BT.709
Transfer characteristics                 : BT.709
Matrix coefficients                      : BT.709

Audio
ID                                       : 2
Format                                   : AAC
Format/Info                              : Advanced Audio Codec
Format profile                           : LC
Codec ID                                 : 40
Duration                                 : 24mn 36s
Bit rate mode                            : Variable
Bit rate                                 : 114 Kbps
Maximum bit rate                         : 143 Kbps
Channel(s)                               : 2 channels
Channel positions                        : Front: L R
Sampling rate                            : 48.0 KHz
Compression mode                         : Lossy
Stream size                              : 20.0 MiB (6%)
Language                                 : French
Encoded date                             : UTC 2011-06-29 09:19:45
Tagged date                              : UTC 2011-06-29 09:19:47