Chrno Crusade DVDRip MULTi


En 1928, la ville de New York est témoin d’une vaque de phénomènes paranormaux et démoniaques de plus en plus importants. Le monastère de Magdalena forme une armée d’exorcistes constituée de sœurs et de prêtres très spéciaux, afin de mettre un terme à cette déferlante maléfique.
Rosette Christopher, l’une de ces jeunes combattantes, fait un pacte avec un démon autrefois sanguinaire, Chrno, dont elle espère l’aide en vue de retrouver son frère Joshua, enlevé par Aion, le plus puissant des démons. Celui-ci est animé de biens funestes desseins.

Chrno.Crusade.MULTi.DVDRip.x264-MANGACiTY

mot de passe : crusade
General
Format                                   : Matroska
Format version                           : Version 2
File size                                : 194 MiB
Duration                                 : 22mn 45s
Overall bit rate                         : 1 191 Kbps
Encoded date                             : UTC 2009-10-19 11:37:22
Writing application                      : mkvmerge v2.9.5 ('Tu es le seul') built on Jun  7 2009 11:07:07
Writing library                          : libebml v0.7.7 + libmatroska v0.8.1

Video
ID                                       : 1
Format                                   : AVC
Format/Info                              : Advanced Video Codec
Format profile                           : High@L3.1
Format settings, CABAC                   : Yes
Format settings, ReFrames                : 8 frames
Codec ID                                 : V_MPEG4/ISO/AVC
Duration                                 : 22mn 45s
Bit rate                                 : 933 Kbps
Width                                    : 720 pixels
Height                                   : 544 pixels
Display aspect ratio                     : 4:3
Frame rate                               : 25.000 fps
Color space                              : YUV
Chroma subsampling                       : 4:2:0
Bit depth                                : 8 bits
Scan type                                : Progressive
Bits/(Pixel*Frame)                       : 0.095
Stream size                              : 148 MiB (77%)
Writing library                          : x264 core 68 r1183M f21daff
Default                                  : Yes
Forced                                   : No

Audio #1
ID                                       : 2
Format                                   : MPEG Audio
Format version                           : Version 1
Format profile                           : Layer 3
Mode                                     : Joint stereo
Mode extension                           : MS Stereo
Codec ID                                 : A_MPEG/L3
Codec ID/Hint                            : MP3
Duration                                 : 22mn 35s
Bit rate mode                            : Constant
Bit rate                                 : 128 Kbps
Channel(s)                               : 2 channels
Sampling rate                            : 48.0 KHz
Compression mode                         : Lossy
Stream size                              : 20.7 MiB (11%)
Title                                    : Francais
Writing library                          : LAME3.98r
Encoding settings                        : -m j -V 4 -q 2 -lowpass 17 -b 128
Language                                 : French
Default                                  : Yes
Forced                                   : No

Audio #2
ID                                       : 3
Format                                   : MPEG Audio
Format version                           : Version 1
Format profile                           : Layer 3
Mode                                     : Joint stereo
Mode extension                           : MS Stereo
Codec ID                                 : A_MPEG/L3
Codec ID/Hint                            : MP3
Duration                                 : 22mn 43s
Bit rate mode                            : Constant
Bit rate                                 : 128 Kbps
Channel(s)                               : 2 channels
Sampling rate                            : 48.0 KHz
Compression mode                         : Lossy
Stream size                              : 20.8 MiB (11%)
Title                                    : Japonais
Writing library                          : LAME3.98r
Encoding settings                        : -m j -V 4 -q 2 -lowpass 17 -b 128
Language                                 : Japanese
Default                                  : No
Forced                                   : No

Text #1
ID                                       : 4
Format                                   : UTF-8
Codec ID                                 : S_TEXT/UTF8
Codec ID/Info                            : UTF-8 Plain Text
Title                                    : Francais Pour La VF
Language                                 : French
Default                                  : Yes
Forced                                   : No

Text #2
ID                                       : 5
Format                                   : VobSub
Muxing mode                              : zlib
Codec ID                                 : S_VOBSUB
Codec ID/Info                            : The same subtitle format used on DVDs
Title                                    : Francais Pour La VO
Language                                 : French
Default                                  : No
Forced                                   : No