Bleach HD 720p/1080p FRENCH


Kurosaki Ichigo, un étudiant de quinze ans aux cheveux orange qui aime la bagarre (comme son père) a la particularité de voir les fantômes ainsi que de pouvoir les toucher. Cela l’amène à rencontrer Kuchiki Rukia, un Shinigami (dieu de la mort) qui combat un Hollow. Le déroulement du combat amène Kuchiki à donner ses pouvoirs à Ichigo qui deviens alors lui même un Shinigami. C’est maintenant à son tour de protéger la ville des Hollows.

NOUVEAU !!! Exclusivité Animarat

Bleach.S01-S12.FRENCH.1080p.BluRay.REMUX.AC3-raton

mot de passe : bleach
Unique ID                   : 172438422358458227831379319738974584268 (0x81BA6E9F4E232E17B7788D3BB95BBDCC)
Complete name               : Bleach.E001.Le.Jour.Ou.Je.Suis.Devenu.Un.Shinigami.FRENCH.1080p.BluRay.REMUX.AC3-raton.mkv
Format                      : Matroska
Format version              : Version 4
File size                   : 2.82 GiB
Duration                    : 23 min 4 s
Overall bit rate mode       : Variable
Overall bit rate            : 17.5 Mb/s
Encoded date                : UTC 2019-05-10 20:40:55
Writing application         : mkvmerge v8.9.0 ('Father Daughter') 64bit
Writing library             : libebml v1.3.3 + libmatroska v1.4.4

Video
ID                          : 1
Format                      : AVC
Format/Info                 : Advanced Video Codec
Format profile              : High@L4.1
Format settings             : CABAC / 4 Ref Frames
Format settings, CABAC      : Yes
Format settings, Reference  : 4 frames
Codec ID                    : V_MPEG4/ISO/AVC
Duration                    : 23 min 4 s
Bit rate mode               : Variable
Bit rate                    : 17.0 Mb/s
Maximum bit rate            : 35.0 Mb/s
Width                       : 1 920 pixels
Height                      : 1 080 pixels
Display aspect ratio        : 16:9
Frame rate mode             : Constant
Frame rate                  : 23.976 (24000/1001) FPS
Standard                    : NTSC
Color space                 : YUV
Chroma subsampling          : 4:2:0
Bit depth                   : 8 bits
Scan type                   : Progressive
Bits/(Pixel*Frame)          : 0.342
Stream size                 : 2.74 GiB (97%)
Default                     : Yes
Forced                      : No
Color range                 : Limited
Color primaries             : BT.709
Transfer characteristics    : BT.709
Matrix coefficients         : BT.709

Audio
ID                          : 2
Format                      : AC-3
Format/Info                 : Audio Coding 3
Commercial name             : Dolby Digital
Codec ID                    : A_AC3
Duration                    : 23 min 4 s
Bit rate mode               : Constant
Bit rate                    : 448 kb/s
Channel(s)                  : 2 channels
Channel layout              : L R
Sampling rate               : 44.1 kHz
Frame rate                  : 28.711 FPS (1536 SPF)
Bit depth                   : 16 bits
Compression mode            : Lossy
Stream size                 : 73.9 MiB (3%)
Language                    : French
Service kind                : Complete Main
Default                     : Yes
Forced                      : No

Menu
00:00:00.000                : :Chapter 1
00:01:41.017                : :Chapter 2
00:09:01.833                : :Chapter 3
00:21:47.514                : :Chapter 4
00:22:47.574                : :Chapter 5
00:23:04.341                : :Chapter 6

Bleach.S01-S12.FRENCH.720p.AC3.x264-RaToN

Bleach.S13.FRENCH.720p.AC3.x264

Bleach.S14-S16.FRENCH.1080p.AC3.x264-raton

mot de passe : bleach
Unique ID                   : 253343793308242523048598743207899445194 (0xBE983D61F0B3AF0E92D19873402637CA)
Complete name               : Bleach.001.FRENCH.720p.AC3.x264-RaToN.mkv
Format                      : Matroska
Format version              : Version 4
File size                   : 558 MiB
Duration                    : 22 min 51 s
Overall bit rate            : 3 413 kb/s
Movie name                  : Bleach.Episode.01 : Le jour où je suis devenu Shinigami By JMS
Encoded date                : UTC 2014-04-18 17:44:54
Writing application         : mkvmerge v6.5.0 ('Isn't she lovely') built on Oct 20 2013 12:50:05
Writing library             : libebml v1.3.0 + libmatroska v1.4.1

Video
ID                          : 1
Format                      : AVC
Format/Info                 : Advanced Video Codec
Format profile              : High@L4.1
Format settings             : CABAC / 16 Ref Frames
Format settings, CABAC      : Yes
Format settings, Reference  : 16 frames
Codec ID                    : V_MPEG4/ISO/AVC
Duration                    : 22 min 51 s
Bit rate                    : 3 000 kb/s
Width                       : 960 pixels
Height                      : 728 pixels
Display aspect ratio        : 4:3
Frame rate mode             : Constant
Frame rate                  : 23.976 (24000/1001) FPS
Color space                 : YUV
Chroma subsampling          : 4:2:0
Bit depth                   : 8 bits
Scan type                   : Progressive
Bits/(Pixel*Frame)          : 0.179
Stream size                 : 484 MiB (87%)
Writing library             : x264 core 125 r2208 d9d2288
Encoding settings           : cabac=1 / ref=16 / deblock=1:0:0 / analyse=0x3:0x133 / me=umh / subme=9 / psy=1 / psy_rd=0.80:0.00 / mixed_ref=1 / me_range=24 / chroma_me=1 / trellis=2 / 8x8dct=1 / cqm=0 / deadzone=21,11 / fast_pskip=1 / chroma_qp_offset=-2 / threads=12 / lookahead_threads=2 / sliced_threads=0 / nr=0 / decimate=1 / interlaced=0 / bluray_compat=0 / constrained_intra=0 / bframes=12 / b_pyramid=2 / b_adapt=2 / b_bias=0 / direct=1 / weightb=1 / open_gop=0 / weightp=2 / keyint=250 / keyint_min=23 / scenecut=40 / intra_refresh=0 / rc_lookahead=40 / rc=abr / mbtree=1 / bitrate=3000 / ratetol=1.0 / qcomp=0.80 / qpmin=8 / qpmax=27 / qpstep=4 / ip_ratio=1.40 / aq=1:0.90
Default                     : Yes
Forced                      : No

Audio
ID                          : 2
Format                      : AC-3
Format/Info                 : Audio Coding 3
Commercial name             : Dolby Digital
Codec ID                    : A_AC3
Duration                    : 22 min 51 s
Bit rate mode               : Constant
Bit rate                    : 384 kb/s
Channel(s)                  : 2 channels
Channel layout              : L R
Sampling rate               : 44.1 kHz
Frame rate                  : 28.711 FPS (1536 SPF)
Bit depth                   : 16 bits
Compression mode            : Lossy
Stream size                 : 62.8 MiB (11%)
Language                    : French
Service kind                : Complete Main
Default                     : Yes
Forced                      : No

Text
ID                          : 3
Format                      : VobSub
Muxing mode                 : zlib
Codec ID                    : S_VOBSUB
Codec ID/Info               : Picture based subtitle format used on DVDs
Title                       : Fr forcé (idx/sub)
Language                    : French
Default                     : Yes
Forced                      : No

Menu
00:00:00.000                : en:Chapter 1
00:01:30.080                : en:Chapter 2
00:08:53.720                : en:Chapter 3
00:21:40.320                : en:Chapter 4
00:22:45.560                : en:Chapter 5

Bleach VOSTFR – Arcs 01 à 07 – 480p

Bleach VOSTFR – Arc 08 à 14 – 720p

mot de passe : bleach
Complete name               : Bleach_001.mp4
Format                      : MPEG-4
Format profile              : Base Media
Codec ID                    : isom (isom/avc1)
File size                   : 135 MiB
Duration                    : 22 min 44 s
Overall bit rate mode       : Variable
Overall bit rate            : 833 kb/s
Encoded date                : UTC 2013-02-28 02:32:13
Tagged date                 : UTC 2013-02-28 02:32:13

Video
ID                          : 1
Format                      : AVC
Format/Info                 : Advanced Video Codec
Format profile              : High@L4.1
Format settings             : CABAC / 4 Ref Frames
Format settings, CABAC      : Yes
Format settings, Reference  : 4 frames
Codec ID                    : avc1
Codec ID/Info               : Advanced Video Coding
Duration                    : 22 min 44 s
Bit rate                    : 700 kb/s
Maximum bit rate            : 3 338 kb/s
Width                       : 640 pixels
Height                      : 480 pixels
Display aspect ratio        : 4:3
Frame rate mode             : Constant
Frame rate                  : 23.976 (24000/1001) FPS
Color space                 : YUV
Chroma subsampling          : 4:2:0
Bit depth                   : 8 bits
Scan type                   : Progressive
Bits/(Pixel*Frame)          : 0.095
Stream size                 : 114 MiB (84%)
Writing library             : x264 core 118 r2085 8a62835
Encoding settings           : cabac=1 / ref=3 / deblock=1:0:0 / analyse=0x3:0x113 / me=hex / subme=7 / psy=1 / psy_rd=1.00:0.00 / mixed_ref=1 / me_range=16 / chroma_me=1 / trellis=1 / 8x8dct=1 / cqm=0 / deadzone=21,11 / fast_pskip=1 / chroma_qp_offset=-2 / threads=12 / sliced_threads=0 / nr=0 / decimate=1 / interlaced=0 / bluray_compat=0 / constrained_intra=0 / bframes=3 / b_pyramid=2 / b_adapt=1 / b_bias=0 / direct=1 / weightb=1 / open_gop=0 / weightp=2 / keyint=250 / keyint_min=23 / scenecut=40 / intra_refresh=0 / rc_lookahead=40 / rc=2pass / mbtree=1 / bitrate=700 / ratetol=1.0 / qcomp=0.60 / qpmin=0 / qpmax=69 / qpstep=4 / cplxblur=20.0 / qblur=0.5 / vbv_maxrate=50000 / vbv_bufsize=50000 / nal_hrd=none / ip_ratio=1.40 / aq=1:1.00
Encoded date                : UTC 2013-02-28 02:32:13
Tagged date                 : UTC 2013-02-28 02:32:17
Codec configuration box     : avcC

Audio
ID                          : 2
Format                      : AAC LC
Format/Info                 : Advanced Audio Codec Low Complexity
Codec ID                    : mp4a-40-2
Duration                    : 22 min 44 s
Bit rate mode               : Variable
Bit rate                    : 128 kb/s
Maximum bit rate            : 162 kb/s
Channel(s)                  : 2 channels
Channel layout              : L R
Sampling rate               : 48.0 kHz
Frame rate                  : 46.875 FPS (1024 SPF)
Compression mode            : Lossy
Stream size                 : 20.8 MiB (15%)
Encoded date                : UTC 2013-02-28 02:32:17
Tagged date                 : UTC 2013-02-28 02:32:17
Complete name               : Bleach_190.mp4
Format                      : MPEG-4
Format profile              : Base Media / Version 2
Codec ID                    : mp42 (ndxc/avc1/mp42/isom)
File size                   : 224 MiB
Duration                    : 24 min 4 s
Overall bit rate mode       : Variable
Overall bit rate            : 1 303 kb/s
Encoded date                : UTC 2008-10-16 12:42:00
Tagged date                 : UTC 2008-10-16 13:26:26

Video
ID                          : 1
Format                      : AVC
Format/Info                 : Advanced Video Codec
Format profile              : High@L3.1
Format settings             : CABAC / 2 Ref Frames
Format settings, CABAC      : Yes
Format settings, Reference  : 2 frames
Codec ID                    : avc1
Codec ID/Info               : Advanced Video Coding
Duration                    : 24 min 4 s
Bit rate                    : 1 170 kb/s
Maximum bit rate            : 7 953 kb/s
Width                       : 1 280 pixels
Height                      : 720 pixels
Display aspect ratio        : 16:9
Frame rate mode             : Constant
Frame rate                  : 23.976 (24000/1001) FPS
Color space                 : YUV
Chroma subsampling          : 4:2:0
Bit depth                   : 8 bits
Scan type                   : Progressive
Bits/(Pixel*Frame)          : 0.053
Stream size                 : 201 MiB (90%)
Language                    : English
Encoded date                : UTC 2008-10-16 12:42:00
Tagged date                 : UTC 2008-10-16 13:26:26
Codec configuration box     : avcC

Audio
ID                          : 2
Format                      : AAC LC SBR
Format/Info                 : Advanced Audio Codec Low Complexity with Spectral Band Replication
Commercial name             : HE-AAC
Format settings             : Explicit
Codec ID                    : mp4a-40-2
Duration                    : 24 min 4 s
Bit rate mode               : Variable
Bit rate                    : 129 kb/s
Maximum bit rate            : 186 kb/s
Channel(s)                  : 2 channels
Channel layout              : L R
Sampling rate               : 48.0 kHz
Frame rate                  : 23.438 FPS (2048 SPF)
Compression mode            : Lossy
Stream size                 : 22.1 MiB (10%)
Language                    : English
Encoded date                : UTC 2008-10-16 12:42:00
Tagged date                 : UTC 2008-10-16 13:26:26

LES FILMS :

Bleach.Memories.of.Nobody.2006.MULTi.1080p.BluRay.x264-RiPiT.mkv

Bleach.The.DiamondDust.Rebellion.2007.MULTi.1080p.BluRay.x264-RiPiT.mkv

Bleach.Fade.To.Black.MULTI.COMPLETE.BLURAY-OOKAMI

Bleach.Movie.4.Hell.Verse.MULTi.1080p.BluRay.x264.mkv

mot de passe : bleach
Source....: FULL BD NoTaG
TMDb......: https://www.themoviedb.org/movie/15575

Team Note.: We're looking for contacts, tools, or some help for Netflix, Amazon, widevine / playready stuff, please send a mail

Contact...: ripitcontact@protonmail.com
 
-----------------------------------------------------------------------------------------------------------
 
General
Complete name                            : Bleach.Memories.of.Nobody.2006.MULTi.1080p.BluRay.x264-RiPiT.mkv
Format                                   : Matroska
Format version                           : Version 4
File size                                : 7.94 GiB
Duration                                 : 1 h 32 min
Overall bit rate                         : 12.2 Mb/s
Movie name                               : Bleach.Memories.of.Nobody.2006.MULTi.1080p.BluRay.x264-RiPiT
Encoded date                             : UTC 2015-04-01 20:00:00
Writing application                      : mkvmerge v38.0.0 ('The Silent Type') 64-bit
Writing library                          : libebml v1.3.9 + libmatroska v1.5.2

Video
ID                                       : 1
Format                                   : AVC
Format/Info                              : Advanced Video Codec
Format profile                           : High@L4.1
Format settings                          : CABAC / 4 Ref Frames
Format settings, CABAC                   : Yes
Format settings, Reference frames        : 4 frames
Codec ID                                 : V_MPEG4/ISO/AVC
Duration                                 : 1 h 32 min
Bit rate                                 : 9 225 kb/s
Width                                    : 1 920 pixels
Height                                   : 1 040 pixels
Display aspect ratio                     : 1.85:1
Frame rate mode                          : Constant
Frame rate                               : 25.000 FPS
Color space                              : YUV
Chroma subsampling                       : 4:2:0
Bit depth                                : 8 bits
Scan type                                : Progressive
Bits/(Pixel*Frame)                       : 0.185
Stream size                              : 5.98 GiB (75%)
Writing library                          : x264 core 161
Encoding settings                        : cabac=1 / ref=4 / deblock=1:-1:-1 / analyse=0x3:0x113 / me=umh / subme=10 / psy=1 / psy_rd=1.00:0.00 / mixed_ref=1 / me_range=16 / chroma_me=1 / trellis=2 / 8x8dct=1 / cqm=0 / deadzone=21,11 / fast_pskip=0 / chroma_qp_offset=-2 / threads=24 / lookahead_threads=2 / sliced_threads=0 / nr=0 / decimate=1 / interlaced=0 / bluray_compat=0 / constrained_intra=0 / bframes=3 / b_pyramid=2 / b_adapt=1 / b_bias=0 / direct=3 / weightb=1 / open_gop=0 / weightp=2 / keyint=240 / keyint_min=24 / scenecut=40 / intra_refresh=0 / rc_lookahead=50 / rc=2pass / mbtree=1 / bitrate=9225 / ratetol=1.0 / qcomp=0.60 / qpmin=0 / qpmax=69 / qpstep=4 / cplxblur=20.0 / qblur=0.5 / ip_ratio=1.40 / aq=1:1.00
Default                                  : Yes
Forced                                   : No

Audio #1
ID                                       : 2
Format                                   : DTS
Format/Info                              : Digital Theater Systems
Codec ID                                 : A_DTS
Duration                                 : 1 h 32 min
Bit rate mode                            : Constant
Bit rate                                 : 1 509 kb/s
Channel(s)                               : 6 channels
Channel layout                           : C L R Ls Rs LFE
Sampling rate                            : 48.0 kHz
Frame rate                               : 93.750 FPS (512 SPF)
Bit depth                                : 24 bits
Compression mode                         : Lossy
Stream size                              : 1 002 MiB (12%)
Language                                 : French
Default                                  : Yes
Forced                                   : No

Audio #2
ID                                       : 3
Format                                   : DTS
Format/Info                              : Digital Theater Systems
Codec ID                                 : A_DTS
Duration                                 : 1 h 32 min
Bit rate mode                            : Constant
Bit rate                                 : 1 509 kb/s
Channel(s)                               : 6 channels
Channel layout                           : C L R Ls Rs LFE
Sampling rate                            : 48.0 kHz
Frame rate                               : 93.750 FPS (512 SPF)
Bit depth                                : 24 bits
Compression mode                         : Lossy
Stream size                              : 1 002 MiB (12%)
Language                                 : Japanese
Default                                  : No
Forced                                   : No

Text #1
ID                                       : 4
Format                                   : UTF-8
Codec ID                                 : S_TEXT/UTF8
Codec ID/Info                            : UTF-8 Plain Text
Duration                                 : 1 h 30 min
Bit rate                                 : 3 b/s
Count of elements                        : 50
Stream size                              : 2.13 KiB (0%)
Title                                    : Forced
Language                                 : French
Default                                  : Yes
Forced                                   : Yes

Text #2
ID                                       : 5
Format                                   : UTF-8
Codec ID                                 : S_TEXT/UTF8
Codec ID/Info                            : UTF-8 Plain Text
Duration                                 : 1 h 32 min
Bit rate                                 : 47 b/s
Count of elements                        : 1117
Stream size                              : 32.2 KiB (0%)
Title                                    : Full
Language                                 : French
Default                                  : No
Forced                                   : No

Menu
00:00:00.000                             : en:Chapitre 01
00:14:47.000                             : en:Chapitre 02
00:28:57.000                             : en:Chapitre 03
00:41:57.000                             : en:Chapitre 04
01:00:09.000                             : en:Chapitre 05
01:19:31.000                             : en:Chapitre 06
01:27:31.000                             : en:Chapitre 07
Source....: FULL BD OOKAMI
TMDb......: https://www.themoviedb.org/movie/17101

Team Note.: We're looking for contacts, tools, or some help for Netflix, Amazon, widevine / playready stuff, please send a mail

Contact...: ripitcontact@protonmail.com
 
------------------------------------------------------------------------------------------------------------------
 
General
Complete name                            : Bleach.The.DiamondDust.Rebellion.2007.MULTi.1080p.BluRay.x264-RiPiT.mkv
Format                                   : Matroska
Format version                           : Version 4
File size                                : 7.65 GiB
Duration                                 : 1 h 32 min
Overall bit rate                         : 11.8 Mb/s
Movie name                               : Bleach.The.DiamondDust.Rebellion.2007.MULTi.1080p.BluRay.x264-RiPiT
Encoded date                             : UTC 2015-04-01 20:00:00
Writing application                      : mkvmerge v38.0.0 ('The Silent Type') 64-bit
Writing library                          : libebml v1.3.9 + libmatroska v1.5.2

Video
ID                                       : 1
Format                                   : AVC
Format/Info                              : Advanced Video Codec
Format profile                           : High@L4.1
Format settings                          : CABAC / 4 Ref Frames
Format settings, CABAC                   : Yes
Format settings, Reference frames        : 4 frames
Codec ID                                 : V_MPEG4/ISO/AVC
Duration                                 : 1 h 32 min
Bit rate                                 : 8 793 kb/s
Width                                    : 1 920 pixels
Height                                   : 1 038 pixels
Display aspect ratio                     : 1.85:1
Frame rate mode                          : Constant
Frame rate                               : 23.976 (24000/1001) FPS
Color space                              : YUV
Chroma subsampling                       : 4:2:0
Bit depth                                : 8 bits
Scan type                                : Progressive
Bits/(Pixel*Frame)                       : 0.184
Stream size                              : 5.70 GiB (74%)
Writing library                          : x264 core 161
Encoding settings                        : cabac=1 / ref=4 / deblock=1:-1:-1 / analyse=0x3:0x113 / me=umh / subme=10 / psy=1 / psy_rd=1.00:0.00 / mixed_ref=1 / me_range=16 / chroma_me=1 / trellis=2 / 8x8dct=1 / cqm=0 / deadzone=21,11 / fast_pskip=0 / chroma_qp_offset=-2 / threads=24 / lookahead_threads=2 / sliced_threads=0 / nr=0 / decimate=1 / interlaced=0 / bluray_compat=0 / constrained_intra=0 / bframes=3 / b_pyramid=2 / b_adapt=1 / b_bias=0 / direct=3 / weightb=1 / open_gop=0 / weightp=2 / keyint=240 / keyint_min=23 / scenecut=40 / intra_refresh=0 / rc_lookahead=50 / rc=2pass / mbtree=1 / bitrate=8793 / ratetol=1.0 / qcomp=0.60 / qpmin=0 / qpmax=69 / qpstep=4 / cplxblur=20.0 / qblur=0.5 / ip_ratio=1.40 / aq=1:1.00
Default                                  : Yes
Forced                                   : No

Audio #1
ID                                       : 2
Format                                   : DTS
Format/Info                              : Digital Theater Systems
Codec ID                                 : A_DTS
Duration                                 : 1 h 32 min
Bit rate mode                            : Constant
Bit rate                                 : 1 509 kb/s
Channel(s)                               : 6 channels
Channel layout                           : C L R Ls Rs LFE
Sampling rate                            : 48.0 kHz
Frame rate                               : 93.750 FPS (512 SPF)
Bit depth                                : 24 bits
Compression mode                         : Lossy
Stream size                              : 1 001 MiB (13%)
Language                                 : French
Default                                  : Yes
Forced                                   : No

Audio #2
ID                                       : 3
Format                                   : DTS
Format/Info                              : Digital Theater Systems
Codec ID                                 : A_DTS
Duration                                 : 1 h 32 min
Bit rate mode                            : Constant
Bit rate                                 : 1 509 kb/s
Channel(s)                               : 6 channels
Channel layout                           : C L R Ls Rs LFE
Sampling rate                            : 48.0 kHz
Frame rate                               : 93.750 FPS (512 SPF)
Bit depth                                : 24 bits
Compression mode                         : Lossy
Stream size                              : 1 001 MiB (13%)
Language                                 : Japanese
Default                                  : No
Forced                                   : No

Text #1
ID                                       : 4
Format                                   : UTF-8
Codec ID                                 : S_TEXT/UTF8
Codec ID/Info                            : UTF-8 Plain Text
Duration                                 : 1 h 26 min
Bit rate                                 : 1 b/s
Count of elements                        : 30
Stream size                              : 1.26 KiB (0%)
Title                                    : Forced
Language                                 : French
Default                                  : Yes
Forced                                   : Yes

Text #2
ID                                       : 5
Format                                   : UTF-8
Codec ID                                 : S_TEXT/UTF8
Codec ID/Info                            : UTF-8 Plain Text
Duration                                 : 1 h 31 min
Bit rate                                 : 45 b/s
Count of elements                        : 927
Stream size                              : 30.6 KiB (0%)
Title                                    : Full
Language                                 : French
Default                                  : No
Forced                                   : No

Menu
00:00:00.000                             : en:Chapitre 01
         ╔═──────────────────────────────═══════════════──────────────────────────────═╗
         ║                               OOKAMI PRESENT:                               ║
         ╚═──────────────────────────────═══════════════──────────────────────────────═╝
    ╔═─═════════─═╗         ╔─╦──╦───╦────╦═───═╦═───═╦────╦───╦──╦─╗         ╔═─═════════─═╗
    ╚╬            ╚═─═════─═╝═╩══╩═══╩════╩9════╩═════╩════╩═══╩══╩═╚═─═════─═╝            ╬╝
     ║                  Bleach.Fade.To.Black.MULTI.COMPLETE.BLURAY-OOKAMI                  ║
    ╔╝╦═─────────────────═══════════════════════════════════════════════─────────────────═╦╚╗
    ╚╬╝ ╨ ╨ ╨ ╨ ╨ ╨ ╨ ╨ ╨ ╨ ╨ ╨ ╨ ╨ ╨ ╨ ╨ ╨ ╨ ╨ ╨ ╨ ╨ ╨ ╨ ╨ ╨ ╨ ╨ ╨ ╨ ╨ ╨ ╨ ╨ ╨ ╨ ╨ ╨ ╨ ╨ ╚╬╝
     ╚═─═══════════════─═╗                                             ╔═─═══════════════─═╝
    ╔═─════════════════─═╝                                             ╚═─════════════════─═╗
    ╚╬                                                                                     ╬╝
    ▓│                          Infos:                                                     │▒
    ▓│                              Genre: Action/Combat                                   │▒
    ▓│                              Archives: 25x500Mb                                     │▒
    ▓│                              Arch Name: oki-blftb.r*                                │▒
    ▓│                              Release Date: 30/12/2011                               │▒
    ▓│                              Ripper: OKI                                            │▒
    ▓│                              Supply: OKI                                            │▒
    ▓│                                                                                     │▒
    ▓│                          Video:                                                     │▒
    ▓│                              Source: BLURAY Z2                                      │▒
    ▓│                              Video: Untouched                                       │▒
    ▓│                              Audio: .JP DTS-HD - .FR DTS-HD - .EN DTS-HD            │▒
    ▓│                                     .IT DTS-HD - .DE DTS-HD                         │▒
    ▓│                              Sub: .FR Forced - .FR - .DE Forced - .DE - .EN - .NL   │▒
    ▓│                                   .PL - .It - .IT Forced                            │▒
    ▓│                                                                                     │▒
    ╔╝╦═══════════════════════════════════════════════════════════════════════════════════╦╚╗
    ╚╬╝ ╨ ╨ ╨ ╨ ╨ ╨ ╨ ╨ ╨ ╨ ╨ ╨ ╨ ╨ ╨ ╨ ╨ ╨ ╨ ╨ ╨ ╨ ╨ ╨ ╨ ╨ ╨ ╨ ╨ ╨ ╨ ╨ ╨ ╨ ╨ ╨ ╨ ╨ ╨ ╨ ╨ ╚╬╝
     ╚═════════════════════════════════════════════════════════════════════════════════════╝
    ▓│                                                                                     │▒
    ▓│                                                                                     │▒
    ▓│                          Info:                                                      │▒
    ▓│                                                                                     │▒
    ▓│       http://animeka.com/animes/detail/bleach-movie3.html                           │▒
    ▓│                                                                                     │▒
    ▓│                                                                                     │▒
    ╔╝╦═─────────────────═══════════════════════════════════════════════─────────────────═╦╚╗
    ╚╬╝ ╨ ╨ ╨ ╨ ╨ ╨ ╨ ╨ ╨ ╨ ╨ ╨ ╨ ╨ ╨ ╨ ╨ ╨ ╨ ╨ ╨ ╨ ╨ ╨ ╨ ╨ ╨ ╨ ╨ ╨ ╨ ╨ ╨ ╨ ╨ ╨ ╨ ╨ ╨ ╨ ╨ ╚╬╝
     ╚═─═══════════════─═╗                                             ╔═─═══════════════─═╝
    ╔═─════════════════─═╝                                             ╚═─════════════════─═╗
    ╚╬                                     GROUP INFOS                                     ╬╝
    ▓│                                                                                     │▒
    ▓│    We Seek Affils: 10/100+ EU/ASiA                                                  │▒
    ▓│            Private 10/100+ EU/US/ASiA                                               │▒
    ▓│                                                                                     │▒
    ╔═─═════════─═╗         ╔─╦──╦───╦────╦═───═╦═───═╦────╦───╦──╦─╗         ╔═─═════════─═╗
    ╚╬            ╚═─═════─═╝═╩══╩═══╩════╩═════╩═════╩════╩═══╩══╩═╚═─═════─═╝            ╬╝
    ▓│   ╔═──────────────────────────────═══════════════──────────────────────────────═╗   │▒
    ▓│   ║La nuit tombee la foret est dangereuse, le loup est la, tapis dans l'ombre...║   │▒
    ▓│   ╚═──────────────────────────────═══════════════──────────────────────────────═╝   │▒
    ▓│                                  JuStLoOK@iNThESkY.pl                               │▒
    ╔╝╦═══════════════════════════════════════════════════════════════════════════════════╦╚╗
    ╚╬╝ ╨ ╨ ╨ ╨ ╨ ╨ ╨ ╨ ╨ ╨ ╨ ╨ ╨ ╨ ╨ ╨ ╨ ╨ ╨ ╨ ╨ ╨ ╨ ╨ ╨ ╨ ╨ ╨ ╨ ╨ ╨ ╨ ╨ ╨ ╨ ╨ ╨ ╨ ╨ ╨ ╨ ╚╬╝
     ╚═════════════════════════════════════════════════════════════════════════════════════╝
Unique ID                   : 176847712967284462976527033860468022257 (0x850BA16F009060A888EF90CDDBCC9BF1)
Complete name               : Bleach.Movie.4.Hell.Verse.MULTi.1080p.BluRay.x264.mkv
Format                      : Matroska
Format version              : Version 2
File size                   : 7.66 GiB
Duration                    : 1 h 33 min
Overall bit rate            : 11.7 Mb/s
Encoded date                : UTC 2012-12-02 14:04:12
Writing application         : mkvmerge v5.8.0 ('No Sleep / Pillow') built on Sep  2 2012 15:37:04
Writing library             : libebml v1.2.3 + libmatroska v1.3.0

Video
ID                          : 1
Format                      : AVC
Format/Info                 : Advanced Video Codec
Format profile              : High@L4.1
Format settings             : CABAC / 4 Ref Frames
Format settings, CABAC      : Yes
Format settings, Reference  : 4 frames
Codec ID                    : V_MPEG4/ISO/AVC
Duration                    : 1 h 33 min
Bit rate                    : 8 648 kb/s
Width                       : 1 920 pixels
Height                      : 1 040 pixels
Display aspect ratio        : 1.85:1
Frame rate mode             : Constant
Frame rate                  : 23.976 (24000/1001) FPS
Color space                 : YUV
Chroma subsampling          : 4:2:0
Bit depth                   : 8 bits
Scan type                   : Progressive
Bits/(Pixel*Frame)          : 0.181
Stream size                 : 5.52 GiB (72%)
Title                       : DEAL - Bleach Film 4 - 1080p
Writing library             : x264 core 129 r2230 1cffe9f
Encoding settings           : cabac=1 / ref=4 / deblock=1:0:0 / analyse=0x3:0x133 / me=umh / subme=7 / psy=1 / psy_rd=1.00:0.00 / mixed_ref=1 / me_range=16 / chroma_me=1 / trellis=1 / 8x8dct=1 / cqm=0 / deadzone=21,11 / fast_pskip=0 / chroma_qp_offset=-2 / threads=16 / lookahead_threads=2 / sliced_threads=0 / nr=0 / decimate=1 / interlaced=0 / bluray_compat=0 / constrained_intra=0 / bframes=3 / b_pyramid=2 / b_adapt=1 / b_bias=0 / direct=1 / weightb=1 / open_gop=0 / weightp=2 / keyint=240 / keyint_min=23 / scenecut=40 / intra_refresh=0 / rc_lookahead=40 / rc=2pass / mbtree=1 / bitrate=8648 / ratetol=1.0 / qcomp=0.60 / qpmin=0 / qpmax=69 / qpstep=4 / cplxblur=20.0 / qblur=0.5 / ip_ratio=1.40 / aq=1:1.00
Language                    : Japanese
Default                     : Yes
Forced                      : No

Audio #1
ID                          : 2
Format                      : DTS
Format/Info                 : Digital Theater Systems
Codec ID                    : A_DTS
Duration                    : 1 h 33 min
Bit rate mode               : Constant
Bit rate                    : 1 509 kb/s
Channel(s)                  : 6 channels
Channel layout              : C L R Ls Rs LFE
Sampling rate               : 48.0 kHz
Frame rate                  : 93.750 FPS (512 SPF)
Bit depth                   : 24 bits
Compression mode            : Lossy
Stream size                 : 1 014 MiB (13%)
Title                       : French DTS
Language                    : French
Default                     : Yes
Forced                      : No

Audio #2
ID                          : 3
Format                      : DTS
Format/Info                 : Digital Theater Systems
Codec ID                    : A_DTS
Duration                    : 1 h 33 min
Bit rate mode               : Constant
Bit rate                    : 1 509 kb/s
Channel(s)                  : 6 channels
Channel layout              : C L R Ls Rs LFE
Sampling rate               : 48.0 kHz
Frame rate                  : 93.750 FPS (512 SPF)
Bit depth                   : 24 bits
Compression mode            : Lossy
Stream size                 : 1 014 MiB (13%)
Title                       : Japanese DTS
Language                    : Japanese
Default                     : No
Forced                      : No

Text #1
ID                          : 4
Format                      : UTF-8
Codec ID                    : S_TEXT/UTF8
Codec ID/Info               : UTF-8 Plain Text
Title                       : French
Language                    : French
Default                     : No
Forced                      : No

Text #2
ID                          : 5
Format                      : UTF-8
Codec ID                    : S_TEXT/UTF8
Codec ID/Info               : UTF-8 Plain Text
Title                       : English
Language                    : English
Default                     : No
Forced                      : No

Text #3
ID                          : 6
Format                      : UTF-8
Codec ID                    : S_TEXT/UTF8
Codec ID/Info               : UTF-8 Plain Text
Title                       : French Forced
Language                    : French
Default                     : Yes
Forced                      : No

Bleach.Movie.1.Memories.Of.Nobody.720p.{X264.AC3-5.1}.{Jap-Fr}.{Subs.Fr-Fr.Forced}.{Chaps}.[SiDERAL].mkv

Bleach.MOViE.2.The.DiamondDust.Rebellion.2007.MULTi.720p.BluRay.x264-SiDERAL.mkv

Bleach.Movie.3.Fade.to.Black.2008.MULTi.720p.BluRay.x264-SiDERAL.mkv

mot de passe : bleach
Unique ID                   : 212916891179386826286208803661933020948 (0xA02E4D3833AB87AF84B8CF300D498714)
Complete name               : Bleach.Movie.1.Memories.Of.Nobody.720p.{X264.AC3-5.1}.{Jap-Fr}.{Subs.Fr-Fr.Forced}.{Chaps}.[SiDERAL].mkv
Format                      : Matroska
Format version              : Version 2
File size                   : 2.65 GiB
Duration                    : 1 h 32 min
Overall bit rate            : 4 088 kb/s
Movie name                  : Bleach.Movie.1 : Memories Of Nobody MULTi [BD 720p] - SiDERAL
Encoded date                : UTC 2012-08-22 08:16:03
Writing application         : mkvmerge v5.1.0 ('And so it goes') built on Nov 28 2011 23:58:28
Writing library             : libebml v1.2.3 + libmatroska v1.3.0

Video
ID                          : 1
Format                      : AVC
Format/Info                 : Advanced Video Codec
Format profile              : High@L4
Format settings             : CABAC / 8 Ref Frames
Format settings, CABAC      : Yes
Format settings, Reference  : 8 frames
Codec ID                    : V_MPEG4/ISO/AVC
Duration                    : 1 h 32 min
Bit rate                    : 2 805 kb/s
Width                       : 1 280 pixels
Height                      : 720 pixels
Display aspect ratio        : 16:9
Frame rate mode             : Constant
Frame rate                  : 23.976 (24000/1001) FPS
Color space                 : YUV
Chroma subsampling          : 4:2:0
Bit depth                   : 8 bits
Scan type                   : Progressive
Bits/(Pixel*Frame)          : 0.127
Stream size                 : 1.77 GiB (67%)
Writing library             : x264 core 125 r2200 999b753
Encoding settings           : cabac=1 / ref=8 / deblock=1:-1:-1 / analyse=0x3:0x133 / me=umh / subme=10 / psy=1 / psy_rd=0.40:0.00 / mixed_ref=1 / me_range=24 / chroma_me=1 / trellis=2 / 8x8dct=1 / cqm=0 / deadzone=21,11 / fast_pskip=1 / chroma_qp_offset=-2 / threads=6 / lookahead_threads=1 / sliced_threads=0 / slices=4 / nr=0 / decimate=1 / interlaced=0 / bluray_compat=0 / constrained_intra=0 / bframes=3 / b_pyramid=2 / b_adapt=2 / b_bias=0 / direct=3 / weightb=1 / open_gop=0 / weightp=2 / keyint=240 / keyint_min=23 / scenecut=40 / intra_refresh=0 / rc_lookahead=60 / rc=2pass / mbtree=1 / bitrate=2805 / ratetol=1.0 / qcomp=0.60 / qpmin=10 / qpmax=51 / qpstep=4 / cplxblur=20.0 / qblur=0.5 / ip_ratio=1.40 / aq=1:0.60
Default                     : Yes
Forced                      : No

Audio #1
ID                          : 2
Format                      : AC-3
Format/Info                 : Audio Coding 3
Commercial name             : Dolby Digital
Codec ID                    : A_AC3
Duration                    : 1 h 32 min
Bit rate mode               : Constant
Bit rate                    : 640 kb/s
Channel(s)                  : 6 channels
Channel layout              : L R C LFE Ls Rs
Sampling rate               : 48.0 kHz
Frame rate                  : 31.250 FPS (1536 SPF)
Bit depth                   : 16 bits
Compression mode            : Lossy
Stream size                 : 425 MiB (16%)
Title                       : AC3 5.1 [640 Kbps]
Language                    : French
Service kind                : Complete Main
Default                     : Yes
Forced                      : No

Audio #2
ID                          : 3
Format                      : AC-3
Format/Info                 : Audio Coding 3
Commercial name             : Dolby Digital
Codec ID                    : A_AC3
Duration                    : 1 h 32 min
Bit rate mode               : Constant
Bit rate                    : 640 kb/s
Channel(s)                  : 6 channels
Channel layout              : L R C LFE Ls Rs
Sampling rate               : 48.0 kHz
Frame rate                  : 31.250 FPS (1536 SPF)
Bit depth                   : 16 bits
Compression mode            : Lossy
Stream size                 : 425 MiB (16%)
Title                       : AC3 5.1 [640 Kbps]
Language                    : Japanese
Service kind                : Complete Main
Default                     : No
Forced                      : No

Text #1
ID                          : 4
Format                      : UTF-8
Codec ID                    : S_TEXT/UTF8
Codec ID/Info               : UTF-8 Plain Text
Title                       : SUBFORCED FR - [SRT]
Language                    : French
Default                     : Yes
Forced                      : No

Text #2
ID                          : 5
Format                      : UTF-8
Codec ID                    : S_TEXT/UTF8
Codec ID/Info               : UTF-8 Plain Text
Title                       : VOSTFR - [SRT]
Language                    : French
Default                     : No
Forced                      : No

Menu
00:00:00.000                : en:Chapter 1
00:14:47.000                : en:Chapter 2
00:28:57.000                : en:Chapter 3
00:41:57.000                : en:Chapter 4
01:00:09.000                : en:Chapter 5
01:19:31.000                : en:Chapter 6
01:27:31.000                : en:Chapter 7
01:32:50.000                : en:Chapter 8
Unique ID                   : 209617187938169475574433474317850005928 (0x9DB2CD4A075226A980B950DDECCC51A8)
Complete name               : Bleach.Movie.2.The.DiamondDust.Rebellion.2007.MULTi.720p.BluRay.x264-SiDERAL.mkv
Format                      : Matroska
Format version              : Version 2
File size                   : 2.65 GiB
Duration                    : 1 h 32 min
Overall bit rate            : 4 093 kb/s
Movie name                  : Bleach.Movie.2 : The DiamondDust Rebellion MULTi [BD 720p] - SiDERAL
Encoded date                : UTC 2012-09-01 14:10:56
Writing application         : mkvmerge v5.0.0 ('Die Wahre Liebe') built on Sep 25 2011 20:33:49
Writing library             : libebml v1.2.2 + libmatroska v1.3.0

Video
ID                          : 1
Format                      : AVC
Format/Info                 : Advanced Video Codec
Format profile              : High@L4
Format settings             : CABAC / 8 Ref Frames
Format settings, CABAC      : Yes
Format settings, Reference  : 8 frames
Codec ID                    : V_MPEG4/ISO/AVC
Duration                    : 1 h 32 min
Bit rate                    : 2 810 kb/s
Width                       : 1 280 pixels
Height                      : 720 pixels
Display aspect ratio        : 16:9
Frame rate mode             : Constant
Frame rate                  : 23.976 (24000/1001) FPS
Color space                 : YUV
Chroma subsampling          : 4:2:0
Bit depth                   : 8 bits
Scan type                   : Progressive
Bits/(Pixel*Frame)          : 0.127
Stream size                 : 1.77 GiB (67%)
Writing library             : x264 core 125 r2200 999b753
Encoding settings           : cabac=1 / ref=8 / deblock=1:-1:-1 / analyse=0x3:0x133 / me=umh / subme=10 / psy=1 / psy_rd=0.40:0.00 / mixed_ref=1 / me_range=24 / chroma_me=1 / trellis=2 / 8x8dct=1 / cqm=0 / deadzone=21,11 / fast_pskip=1 / chroma_qp_offset=-2 / threads=6 / lookahead_threads=1 / sliced_threads=0 / slices=4 / nr=0 / decimate=1 / interlaced=0 / bluray_compat=0 / constrained_intra=0 / bframes=3 / b_pyramid=2 / b_adapt=2 / b_bias=0 / direct=3 / weightb=1 / open_gop=0 / weightp=2 / keyint=240 / keyint_min=23 / scenecut=40 / intra_refresh=0 / rc_lookahead=60 / rc=2pass / mbtree=1 / bitrate=2810 / ratetol=1.0 / qcomp=0.60 / qpmin=10 / qpmax=51 / qpstep=4 / cplxblur=20.0 / qblur=0.5 / ip_ratio=1.40 / aq=1:0.60
Default                     : Yes
Forced                      : No

Audio #1
ID                          : 2
Format                      : AC-3
Format/Info                 : Audio Coding 3
Commercial name             : Dolby Digital
Codec ID                    : A_AC3
Duration                    : 1 h 32 min
Bit rate mode               : Constant
Bit rate                    : 640 kb/s
Channel(s)                  : 6 channels
Channel layout              : L R C LFE Ls Rs
Sampling rate               : 48.0 kHz
Frame rate                  : 31.250 FPS (1536 SPF)
Bit depth                   : 16 bits
Compression mode            : Lossy
Stream size                 : 425 MiB (16%)
Title                       : AC3 5.1 [640 Kbps]
Language                    : French
Service kind                : Complete Main
Default                     : Yes
Forced                      : No

Audio #2
ID                          : 3
Format                      : AC-3
Format/Info                 : Audio Coding 3
Commercial name             : Dolby Digital
Codec ID                    : A_AC3
Duration                    : 1 h 32 min
Bit rate mode               : Constant
Bit rate                    : 640 kb/s
Channel(s)                  : 6 channels
Channel layout              : L R C LFE Ls Rs
Sampling rate               : 48.0 kHz
Frame rate                  : 31.250 FPS (1536 SPF)
Bit depth                   : 16 bits
Compression mode            : Lossy
Stream size                 : 425 MiB (16%)
Title                       : AC3 5.1 [640 Kbps]
Language                    : Japanese
Service kind                : Complete Main
Default                     : No
Forced                      : No

Text #1
ID                          : 4
Format                      : UTF-8
Codec ID                    : S_TEXT/UTF8
Codec ID/Info               : UTF-8 Plain Text
Title                       : SUBFORCED FR - [SRT]
Language                    : French
Default                     : Yes
Forced                      : No

Text #2
ID                          : 5
Format                      : UTF-8
Codec ID                    : S_TEXT/UTF8
Codec ID/Info               : UTF-8 Plain Text
Title                       : VOSTFR - [SRT]
Language                    : French
Default                     : No
Forced                      : No

Menu
00:00:00.000                : en:Chapter 1
00:05:46.637                : en:Chapter 2
00:13:48.536                : en:Chapter 3
00:24:26.965                : en:Chapter 4
00:35:20.159                : en:Chapter 5
00:46:24.281                : en:Chapter 6
00:53:55.148                : en:Chapter 7
01:02:21.112                : en:Chapter 8
01:13:46.839                : en:Chapter 9
01:27:42.632                : en:Chapter 10
Unique ID                   : 243698972995903122026165268660524630367 (0xB756B707060EE4F5BF03574F527B415F)
Complete name               : Bleach.Movie.3.Fade.to.Black.2008.MULTi.720p.BluRay.x264-SiDERAL.mkv
Format                      : Matroska
Format version              : Version 2
File size                   : 2.65 GiB
Duration                    : 1 h 33 min
Overall bit rate            : 4 043 kb/s
Movie name                  : Bleach.Movie.3 : Fade To Black MULTi [BD 720p] - SiDERAL
Encoded date                : UTC 2012-09-09 21:00:59
Writing application         : mkvmerge v5.0.0 ('Die Wahre Liebe') built on Sep 25 2011 20:33:49
Writing library             : libebml v1.2.2 + libmatroska v1.3.0

Video
ID                          : 1
Format                      : AVC
Format/Info                 : Advanced Video Codec
Format profile              : High@L4
Format settings             : CABAC / 8 Ref Frames
Format settings, CABAC      : Yes
Format settings, Reference  : 8 frames
Codec ID                    : V_MPEG4/ISO/AVC
Duration                    : 1 h 33 min
Bit rate                    : 2 760 kb/s
Width                       : 1 280 pixels
Height                      : 720 pixels
Display aspect ratio        : 16:9
Frame rate mode             : Constant
Frame rate                  : 23.976 (24000/1001) FPS
Color space                 : YUV
Chroma subsampling          : 4:2:0
Bit depth                   : 8 bits
Scan type                   : Progressive
Bits/(Pixel*Frame)          : 0.125
Stream size                 : 1.76 GiB (66%)
Writing library             : x264 core 125 r2200 999b753
Encoding settings           : cabac=1 / ref=8 / deblock=1:-1:-1 / analyse=0x3:0x133 / me=umh / subme=10 / psy=1 / psy_rd=0.40:0.00 / mixed_ref=1 / me_range=24 / chroma_me=1 / trellis=2 / 8x8dct=1 / cqm=0 / deadzone=21,11 / fast_pskip=1 / chroma_qp_offset=-2 / threads=6 / lookahead_threads=1 / sliced_threads=0 / slices=4 / nr=0 / decimate=1 / interlaced=0 / bluray_compat=0 / constrained_intra=0 / bframes=3 / b_pyramid=2 / b_adapt=2 / b_bias=0 / direct=3 / weightb=1 / open_gop=0 / weightp=2 / keyint=240 / keyint_min=23 / scenecut=40 / intra_refresh=0 / rc_lookahead=60 / rc=2pass / mbtree=1 / bitrate=2760 / ratetol=1.0 / qcomp=0.60 / qpmin=10 / qpmax=51 / qpstep=4 / cplxblur=20.0 / qblur=0.5 / ip_ratio=1.40 / aq=1:0.60
Default                     : Yes
Forced                      : No

Audio #1
ID                          : 2
Format                      : AC-3
Format/Info                 : Audio Coding 3
Commercial name             : Dolby Digital
Codec ID                    : A_AC3
Duration                    : 1 h 33 min
Bit rate mode               : Constant
Bit rate                    : 640 kb/s
Channel(s)                  : 6 channels
Channel layout              : L R C LFE Ls Rs
Sampling rate               : 48.0 kHz
Frame rate                  : 31.250 FPS (1536 SPF)
Bit depth                   : 16 bits
Compression mode            : Lossy
Stream size                 : 430 MiB (16%)
Title                       : AC3 5.1 [640 Kbps]
Language                    : French
Service kind                : Complete Main
Default                     : Yes
Forced                      : No

Audio #2
ID                          : 3
Format                      : AC-3
Format/Info                 : Audio Coding 3
Commercial name             : Dolby Digital
Codec ID                    : A_AC3
Duration                    : 1 h 33 min
Bit rate mode               : Constant
Bit rate                    : 640 kb/s
Channel(s)                  : 6 channels
Channel layout              : L R C LFE Ls Rs
Sampling rate               : 48.0 kHz
Frame rate                  : 31.250 FPS (1536 SPF)
Bit depth                   : 16 bits
Compression mode            : Lossy
Stream size                 : 430 MiB (16%)
Title                       : AC3 5.1 [640 Kbps]
Language                    : Japanese
Service kind                : Complete Main
Default                     : No
Forced                      : No

Text #1
ID                          : 4
Format                      : UTF-8
Codec ID                    : S_TEXT/UTF8
Codec ID/Info               : UTF-8 Plain Text
Title                       : SUBFORCED FR - [SRT]
Language                    : French
Default                     : Yes
Forced                      : No

Text #2
ID                          : 5
Format                      : UTF-8
Codec ID                    : S_TEXT/UTF8
Codec ID/Info               : UTF-8 Plain Text
Title                       : VOSTFR - [SRT]
Language                    : French
Default                     : No
Forced                      : No

Menu
00:00:00.000                : en:Chapter 1
00:06:45.279                : en:Chapter 2
00:17:29.298                : en:Chapter 3
00:29:03.032                : en:Chapter 4
00:39:28.949                : en:Chapter 5
00:50:13.010                : en:Chapter 6
01:00:52.690                : en:Chapter 7
01:16:52.608                : en:Chapter 8
01:28:56.539                : en:Chapter 9
01:33:51.959                : en:Chapter 10

Bleach.Memories.of.Nobody.2006.FRENCH.720p.BluRay.x264-RiPiT.mkv

Bleach.The.DiamondDust.Rebellion.2007.FRENCH.720p.BluRay.x264-RiPiT.mkv

Bleach.Fade.to.Black.2008.READNFO.FRENCH.720p.BluRay.x264-RiPiT.mkv

mot de passe : bleach
Source....: FULL BD NoTaG
TMDb......: https://www.themoviedb.org/movie/15575

Team Note.: We're looking for contacts, tools, or some help for Netflix, Amazon, widevine / playready stuff, please send a mail

Contact...: ripitcontact@protonmail.com
 
-----------------------------------------------------------------------------------------------------------
 
General
Complete name                            : Bleach.Memories.of.Nobody.2006.FRENCH.720p.BluRay.x264-RiPiT.mkv
Format                                   : Matroska
Format version                           : Version 4
File size                                : 4.37 GiB
Duration                                 : 1 h 32 min
Overall bit rate                         : 6 742 kb/s
Movie name                               : Bleach.Memories.of.Nobody.2006.FRENCH.720p.BluRay.x264-RiPiT
Encoded date                             : UTC 2015-04-01 20:00:00
Writing application                      : mkvmerge v38.0.0 ('The Silent Type') 64-bit
Writing library                          : libebml v1.3.9 + libmatroska v1.5.2

Video
ID                                       : 1
Format                                   : AVC
Format/Info                              : Advanced Video Codec
Format profile                           : High@L4.1
Format settings                          : CABAC / 9 Ref Frames
Format settings, CABAC                   : Yes
Format settings, Reference frames        : 9 frames
Codec ID                                 : V_MPEG4/ISO/AVC
Duration                                 : 1 h 32 min
Bit rate                                 : 5 230 kb/s
Width                                    : 1 280 pixels
Height                                   : 694 pixels
Display aspect ratio                     : 1.85:1
Frame rate mode                          : Constant
Frame rate                               : 25.000 FPS
Color space                              : YUV
Chroma subsampling                       : 4:2:0
Bit depth                                : 8 bits
Scan type                                : Progressive
Bits/(Pixel*Frame)                       : 0.236
Stream size                              : 3.39 GiB (78%)
Writing library                          : x264 core 161
Encoding settings                        : cabac=1 / ref=9 / deblock=1:-1:-1 / analyse=0x3:0x113 / me=umh / subme=10 / psy=1 / psy_rd=1.00:0.00 / mixed_ref=1 / me_range=16 / chroma_me=1 / trellis=2 / 8x8dct=1 / cqm=0 / deadzone=21,11 / fast_pskip=0 / chroma_qp_offset=-2 / threads=22 / lookahead_threads=1 / sliced_threads=0 / nr=0 / decimate=1 / interlaced=0 / bluray_compat=0 / constrained_intra=0 / bframes=3 / b_pyramid=2 / b_adapt=1 / b_bias=0 / direct=3 / weightb=1 / open_gop=0 / weightp=2 / keyint=240 / keyint_min=24 / scenecut=40 / intra_refresh=0 / rc_lookahead=50 / rc=2pass / mbtree=1 / bitrate=5230 / ratetol=1.0 / qcomp=0.60 / qpmin=0 / qpmax=69 / qpstep=4 / cplxblur=20.0 / qblur=0.5 / ip_ratio=1.40 / aq=1:1.00
Default                                  : Yes
Forced                                   : No

Audio
ID                                       : 2
Format                                   : DTS
Format/Info                              : Digital Theater Systems
Codec ID                                 : A_DTS
Duration                                 : 1 h 32 min
Bit rate mode                            : Constant
Bit rate                                 : 1 509 kb/s
Channel(s)                               : 6 channels
Channel layout                           : C L R Ls Rs LFE
Sampling rate                            : 48.0 kHz
Frame rate                               : 93.750 FPS (512 SPF)
Bit depth                                : 24 bits
Compression mode                         : Lossy
Stream size                              : 1 002 MiB (22%)
Language                                 : French
Default                                  : Yes
Forced                                   : No

Text
ID                                       : 3
Format                                   : UTF-8
Codec ID                                 : S_TEXT/UTF8
Codec ID/Info                            : UTF-8 Plain Text
Duration                                 : 1 h 30 min
Bit rate                                 : 3 b/s
Count of elements                        : 50
Stream size                              : 2.13 KiB (0%)
Title                                    : Forced
Language                                 : French
Default                                  : Yes
Forced                                   : Yes

Menu
00:00:00.000                             : en:Chapitre 01
00:14:47.000                             : en:Chapitre 02
00:28:57.000                             : en:Chapitre 03
00:41:57.000                             : en:Chapitre 04
01:00:09.000                             : en:Chapitre 05
01:19:31.000                             : en:Chapitre 06
01:27:31.000                             : en:Chapitre 07
Source....: FULL BD OOKAMI
TMDb......: https://www.themoviedb.org/movie/17101

Team Note.: We're looking for contacts, tools, or some help for Netflix, Amazon, widevine / playready stuff, please send a mail

Contact...: ripitcontact@protonmail.com
 
------------------------------------------------------------------------------------------------------------------
 
General
Complete name                            : Bleach.The.DiamondDust.Rebellion.2007.FRENCH.720p.BluRay.x264-RiPiT.mkv
Format                                   : Matroska
Format version                           : Version 4
File size                                : 4.37 GiB
Duration                                 : 1 h 32 min
Overall bit rate                         : 6 751 kb/s
Movie name                               : Bleach.The.DiamondDust.Rebellion.2007.FRENCH.720p.BluRay.x264-RiPiT
Encoded date                             : UTC 2015-04-01 20:00:00
Writing application                      : mkvmerge v38.0.0 ('The Silent Type') 64-bit
Writing library                          : libebml v1.3.9 + libmatroska v1.5.2

Video
ID                                       : 1
Format                                   : AVC
Format/Info                              : Advanced Video Codec
Format profile                           : High@L4.1
Format settings                          : CABAC / 9 Ref Frames
Format settings, CABAC                   : Yes
Format settings, Reference frames        : 9 frames
Codec ID                                 : V_MPEG4/ISO/AVC
Duration                                 : 1 h 32 min
Bit rate                                 : 5 238 kb/s
Width                                    : 1 280 pixels
Height                                   : 692 pixels
Display aspect ratio                     : 1.85:1
Frame rate mode                          : Constant
Frame rate                               : 23.976 (24000/1001) FPS
Color space                              : YUV
Chroma subsampling                       : 4:2:0
Bit depth                                : 8 bits
Scan type                                : Progressive
Bits/(Pixel*Frame)                       : 0.247
Stream size                              : 3.39 GiB (78%)
Writing library                          : x264 core 161
Encoding settings                        : cabac=1 / ref=9 / deblock=1:-1:-1 / analyse=0x3:0x113 / me=umh / subme=10 / psy=1 / psy_rd=1.00:0.00 / mixed_ref=1 / me_range=16 / chroma_me=1 / trellis=2 / 8x8dct=1 / cqm=0 / deadzone=21,11 / fast_pskip=0 / chroma_qp_offset=-2 / threads=22 / lookahead_threads=1 / sliced_threads=0 / nr=0 / decimate=1 / interlaced=0 / bluray_compat=0 / constrained_intra=0 / bframes=3 / b_pyramid=2 / b_adapt=1 / b_bias=0 / direct=3 / weightb=1 / open_gop=0 / weightp=2 / keyint=240 / keyint_min=23 / scenecut=40 / intra_refresh=0 / rc_lookahead=50 / rc=2pass / mbtree=1 / bitrate=5238 / ratetol=1.0 / qcomp=0.60 / qpmin=0 / qpmax=69 / qpstep=4 / cplxblur=20.0 / qblur=0.5 / ip_ratio=1.40 / aq=1:1.00
Default                                  : Yes
Forced                                   : No

Audio
ID                                       : 2
Format                                   : DTS
Format/Info                              : Digital Theater Systems
Codec ID                                 : A_DTS
Duration                                 : 1 h 32 min
Bit rate mode                            : Constant
Bit rate                                 : 1 509 kb/s
Channel(s)                               : 6 channels
Channel layout                           : C L R Ls Rs LFE
Sampling rate                            : 48.0 kHz
Frame rate                               : 93.750 FPS (512 SPF)
Bit depth                                : 24 bits
Compression mode                         : Lossy
Stream size                              : 1 001 MiB (22%)
Language                                 : French
Default                                  : Yes
Forced                                   : No

Text
ID                                       : 3
Format                                   : UTF-8
Codec ID                                 : S_TEXT/UTF8
Codec ID/Info                            : UTF-8 Plain Text
Duration                                 : 1 h 26 min
Bit rate                                 : 1 b/s
Count of elements                        : 30
Stream size                              : 1.26 KiB (0%)
Title                                    : Forced
Language                                 : French
Default                                  : Yes
Forced                                   : Yes

Menu
00:00:00.000                             : en:Chapitre 01
Source....: FULL BD OOKAMI
TMDb......: https://www.themoviedb.org/movie/17165

Note......: Le bitrate du FULL BD etant trop faible (6827) il est impossible de faire une encode 1080p, prennez le FULL si vous cherchez de la 1080p

Team Note.: We're looking for contacts, tools, or some help for Netflix, Amazon, widevine / playready stuff, please send a mail

Contact...: ripitcontact@protonmail.com
 
--------------------------------------------------------------------------------------------------------------
 
General
Complete name                            : Bleach.Fade.to.Black.2008.READNFO.FRENCH.720p.BluRay.x264-RiPiT.mkv
Format                                   : Matroska
Format version                           : Version 4
File size                                : 4.37 GiB
Duration                                 : 1 h 33 min
Overall bit rate                         : 6 669 kb/s
Movie name                               : Bleach.Fade.to.Black.2008.READNFO.FRENCH.720p.BluRay.x264-RiPiT
Encoded date                             : UTC 2015-04-01 20:00:00
Writing application                      : mkvmerge v38.0.0 ('The Silent Type') 64-bit
Writing library                          : libebml v1.3.9 + libmatroska v1.5.2

Video
ID                                       : 1
Format                                   : AVC
Format/Info                              : Advanced Video Codec
Format profile                           : High@L4.1
Format settings                          : CABAC / 9 Ref Frames
Format settings, CABAC                   : Yes
Format settings, Reference frames        : 9 frames
Codec ID                                 : V_MPEG4/ISO/AVC
Duration                                 : 1 h 33 min
Bit rate                                 : 5 157 kb/s
Width                                    : 1 280 pixels
Height                                   : 692 pixels
Display aspect ratio                     : 1.85:1
Frame rate mode                          : Constant
Frame rate                               : 23.976 (24000/1001) FPS
Color space                              : YUV
Chroma subsampling                       : 4:2:0
Bit depth                                : 8 bits
Scan type                                : Progressive
Bits/(Pixel*Frame)                       : 0.243
Stream size                              : 3.38 GiB (77%)
Writing library                          : x264 core 161
Encoding settings                        : cabac=1 / ref=9 / deblock=1:-1:-1 / analyse=0x3:0x113 / me=umh / subme=10 / psy=1 / psy_rd=1.00:0.00 / mixed_ref=1 / me_range=16 / chroma_me=1 / trellis=2 / 8x8dct=1 / cqm=0 / deadzone=21,11 / fast_pskip=0 / chroma_qp_offset=-2 / threads=22 / lookahead_threads=1 / sliced_threads=0 / nr=0 / decimate=1 / interlaced=0 / bluray_compat=0 / constrained_intra=0 / bframes=3 / b_pyramid=2 / b_adapt=1 / b_bias=0 / direct=3 / weightb=1 / open_gop=0 / weightp=2 / keyint=240 / keyint_min=23 / scenecut=40 / intra_refresh=0 / rc_lookahead=50 / rc=2pass / mbtree=1 / bitrate=5157 / ratetol=1.0 / qcomp=0.60 / qpmin=0 / qpmax=69 / qpstep=4 / cplxblur=20.0 / qblur=0.5 / ip_ratio=1.40 / aq=1:1.00
Default                                  : Yes
Forced                                   : No

Audio
ID                                       : 2
Format                                   : DTS
Format/Info                              : Digital Theater Systems
Codec ID                                 : A_DTS
Duration                                 : 1 h 33 min
Bit rate mode                            : Constant
Bit rate                                 : 1 509 kb/s
Channel(s)                               : 6 channels
Channel layout                           : C L R Ls Rs LFE
Sampling rate                            : 48.0 kHz
Frame rate                               : 93.750 FPS (512 SPF)
Bit depth                                : 24 bits
Compression mode                         : Lossy
Stream size                              : 1 013 MiB (23%)
Language                                 : French
Default                                  : Yes
Forced                                   : No

Text
ID                                       : 3
Format                                   : UTF-8
Codec ID                                 : S_TEXT/UTF8
Codec ID/Info                            : UTF-8 Plain Text
Duration                                 : 1 h 26 min
Bit rate                                 : 0 b/s
Count of elements                        : 5
Stream size                              : 176 Bytes (0%)
Title                                    : Forced
Language                                 : French
Default                                  : Yes
Forced                                   : Yes

Menu
00:00:00.000                             : en:Chapitre 01