Shingeki no Kyojin 1080p MULTi (L’Attaque des Titans)


Il y a 107 ans, les Titans ont presque exterminé la race humaine.
Ces Titans mesurent principalement une dizaine de mètres et ils se nourrissent d’humains.
Les humains ayant survécus à cette extermination ont construit une cité fortifiée avec des murs d’enceinte de 50 mètres de haut pour pouvoir se protéger des Titans.
Pendant 100 ans les humains ont connu la paix.
Eren est un jeune garçon qui rêve de sortir de la ville pour explorer le monde extérieur.
Il mène une vie paisible avec ses parents et sa sœur Mikasa dans le district de Shiganshina.
Mais un jour de l’année 845, un Titan de plus de 60 mètres de haut apparaît. Il démolit une partie du mur du district de Shiganshina et provoque une invasion de Titans. Eren verra sa mère se faire dévorer sous ses yeux sans rien pouvoir faire. Il décidera après ces événements traumatisants de s’engager dans les forces militaires de la ville avec pour but d’exterminer tous les Titans qui existent.

Shingeki.No.Kyojin.S01.MULTi.1080p.BluRay.x264-KAZETV

Shingeki.No.Kyojin.S02.MULTi.1080p.BluRay.x264-KAZETV

Shingeki.no.Kyojin.S03.Ep.01-12.MULTi.1080p.BluRay.x264-KAZETV

Shingeki.no.Kyojin.S03.Ep.13-22.MULTi.1080p.BluRay.x264-THORFINN

Shingeki.no.Kyojin.S04.SUBFRENCH.1080p.WEB.x264-RiPiT

mot de passe : titan
KAZETV brings to you :

Shingeki.No.Kyojin.E25.FiNAL.MULTi.1080p.BluRay.x264-KAZETV

----- Video Info -----

* codec      : X264
* pass       : 2 pass
* bitrate    : 9 904 Kbps
* framerate  : 23.976 fps
* resolution : 1920x1080

----- Audio Info -----

* track     : French & Japanese
* subtitle  : French & French Forced

* codec     : DTS 2.0
* bitrate   : 1509 Kbps
* frequence : 48.0 KHz

----- Packing Info -----

* runtime   : 24min 11s 
* size      : 2.19 Gio
* pack      : 47x50mB

* link      : http://www.imdb.com/title/tt2560140/

* note      : Tu veux mes releases ? Viens me sucer salope ;-)

* note 2    : The this the end mothafucka !
KAZETV brings to you :

Shingeki.No.Kyojin.S02E06.MULTi.1080p.BluRay.x264-KAZETV

---- Video Info ----

* codec      : X264
* pass       : 2 pass
* framerate  : 23.976 fps
* resolution : 1920x1080

---- Audio Info ----

* track     : Japanese / French
* subtitle  : French   / French Forced

* codec     : DTS 2.0
* bitrate   : 1509 Kbps
* frequence : 48.0 KHZ

---- Packing Info ----

* runtime   : 24min 11s
* size      : 2.18 Gio
* pack      : 48x50mB

* link      : http://www.animeka.com/animes/detail/shingeki-no-kyojin-tv2.html

* note      : Greetz a la foret qui dort, la pierre brillante, au poisson cru et au soleil levant.
KAZETV brings to you :

Shingeki.no.Kyojin.S03E12.MULTi.1080p.BluRay.x264-KAZETV

---- Video Info ----

* codec      : X264
* pass       : 2 pass
* framerate  : 23.976 fps
* resolution : 1920x1080

---- Audio Info ----

* track     : Japanese / French
* subtitle  : French   / French Forced

* codec     : DTS 2.0
* bitrate   : 1509 Kbps
* frequence : 48.0 KHZ

---- Packing Info ----

* runtime   : 23min 56s
* size      : 2.18 Gio
* pack      : 47x50mB

* link      : https://www.animeka.com/animes/detail/shingeki-no-kyojin-s3.html

* note      : Greetz a la foret qui dort, la pierre brillante, au dieu de la mort et au soleil levant.
Shingeki.no.Kyojin Season 03 Episode 22


Release: Shingeki.no.Kyojin.S03E22.FINAL.MULTi.1080p.BluRay.x264-THORFINN



- Source: BD
- Size: 2.26GO  
- Frame Rate: 23.976 fps 
- Resolution: 1920x1080p
- Video Codec: x264  
- Video Bitrate: 10.500kbps (2pass) 
- Audio Codec: DTS 2.0
- Language(s): French, Japanese
- Subtitles: French Full , French Forced.




General
Complete name                            : Shingeki.no.Kyojin.S03E22.FINAL.MULTi.1080p.BluRay.x264-THORFINN.mkv
Format                                   : Matroska
Format version                           : Version 4
File size                                : 2.26 GiB
Duration                                 : 23 min 55 s
Overall bit rate                         : 13.5 Mb/s
Movie name                               : Shingeki.no.Kyojin.S03E22.FINAL.MULTi.1080p.BluRay.x264-THORFINN
Writing application                      : mkvmerge v51.0.0 ('I Wish') 64-bit
Writing library                          : libebml v1.4.0 + libmatroska v1.6.2 

Video
ID                                       : 1
Format                                   : AVC
Format/Info                              : Advanced Video Codec
Format profile                           : High@L4.1
Format settings                          : CABAC / 4 Ref Frames
Format settings, CABAC                   : Yes
Format settings, Reference frames        : 4 frames
Codec ID                                 : V_MPEG4/ISO/AVC
Duration                                 : 23 min 54 s
Bit rate                                 : 10.5 Mb/s
Width                                    : 1 920 pixels
Height                                   : 1 080 pixels
Display aspect ratio                     : 16:9
Frame rate mode                          : Constant
Frame rate                               : 23.976 (24000/1001) FPS
Color space                              : YUV
Chroma subsampling                       : 4:2:0
Bit depth                                : 8 bits
Scan type                                : Progressive
Bits/(Pixel*Frame)                       : 0.211
Stream size                              : 1.75 GiB (78%)
Writing library                          : x264 core 157 r2935 545de2f
Encoding settings                        : cabac=1 / ref=4 / deblock=1:1:0 / analyse=0x3:0x133 / me=umh / subme=9 / psy=1 / psy_rd=1.00:0.00 / mixed_ref=1 / me_range=32 / chroma_me=1 / trellis=2 / 8x8dct=1 / cqm=0 / deadzone=21,11 / fast_pskip=1 / chroma_qp_offset=-2 / threads=24 / lookahead_threads=2 / sliced_threads=0 / nr=0 / decimate=1 / interlaced=0 / bluray_compat=0 / constrained_intra=0 / bframes=3 / b_pyramid=2 / b_adapt=2 / b_bias=0 / direct=3 / weightb=1 / open_gop=0 / weightp=2 / keyint=240 / keyint_min=24 / scenecut=40 / intra_refresh=0 / rc_lookahead=60 / rc=2pass / mbtree=1 / bitrate=10500 / ratetol=1.0 / qcomp=0.60 / qpmin=0 / qpmax=69 / qpstep=4 / cplxblur=20.0 / qblur=0.5 / vbv_maxrate=62500 / vbv_bufsize=78125 / nal_hrd=none / filler=0 / ip_ratio=1.40 / aq=1:1.00
Language                                 : Japanese
Default                                  : Yes
Forced                                   : No
Color range                              : Limited
Color primaries                          : BT.709
Transfer characteristics                 : BT.709
Matrix coefficients                      : BT.709

Audio #1
ID                                       : 2
Format                                   : DTS
Format/Info                              : Digital Theater Systems
Codec ID                                 : A_DTS
Duration                                 : 23 min 55 s
Bit rate mode                            : Constant
Bit rate                                 : 1 509 kb/s
Channel(s)                               : 2 channels
Channel layout                           : L R
Sampling rate                            : 48.0 kHz
Frame rate                               : 93.750 FPS (512 SPF)
Bit depth                                : 24 bits
Compression mode                         : Lossy
Stream size                              : 258 MiB (11%)
Title                                    : French
Language                                 : French
Default                                  : Yes
Forced                                   : No

Audio #2
ID                                       : 3
Format                                   : DTS
Format/Info                              : Digital Theater Systems
Codec ID                                 : A_DTS
Duration                                 : 23 min 55 s
Bit rate mode                            : Constant
Bit rate                                 : 1 509 kb/s
Channel(s)                               : 2 channels
Channel layout                           : L R
Sampling rate                            : 48.0 kHz
Frame rate                               : 93.750 FPS (512 SPF)
Bit depth                                : 24 bits
Compression mode                         : Lossy
Stream size                              : 258 MiB (11%)
Title                                    : Japanese
Language                                 : Japanese
Default                                  : No
Forced                                   : No

Text #1
ID                                       : 4
Format                                   : UTF-8
Codec ID                                 : S_TEXT/UTF8
Codec ID/Info                            : UTF-8 Plain Text
Duration                                 : 21 min 48 s
Bit rate                                 : 2 b/s
Count of elements                        : 4
Stream size                              : 460 Bytes (0%)
Title                                    : French Forced
Language                                 : French
Default                                  : Yes
Forced                                   : No

Text #2
ID                                       : 5
Format                                   : UTF-8
Codec ID                                 : S_TEXT/UTF8
Codec ID/Info                            : UTF-8 Plain Text
Duration                                 : 23 min 45 s
Bit rate                                 : 76 b/s
Count of elements                        : 329
Stream size                              : 13.2 KiB (0%)
Title                                    : French
Language                                 : French
Default                                  : No
Forced                                   : No
Source..: Wakanim (Untouched)
TMDb....: https://www.themoviedb.org/tv/1429

Note....: Parametres d'encodages de Wakanim. Fichier untouched

Contact.: ripitcontact@protonmail.com
 
-------------------------------------------------------------------------------------------------------
 
General
Complete name                            : Shingeki.no.Kyojin.S04E01.SUBFRENCH.1080p.WEB.x264-RiPiT.mkv
Format                                   : Matroska
Format version                           : Version 4
File size                                : 721 MiB
Duration                                 : 24 min 3 s
Overall bit rate                         : 4 192 kb/s
Movie name                               : Shingeki.no.Kyojin.S04E01.SUBFRENCH.1080p.WEB.x264-RiPiT
Encoded date                             : UTC 2015-04-01 20:00:00
Writing application                      : mkvmerge v38.0.0 ('The Silent Type') 64-bit
Writing library                          : libebml v1.3.9 + libmatroska v1.5.2

Video
ID                                       : 1
Format                                   : AVC
Format/Info                              : Advanced Video Codec
Format profile                           : High@L4
Format settings                          : CABAC / 4 Ref Frames
Format settings, CABAC                   : Yes
Format settings, Reference frames        : 4 frames
Codec ID                                 : V_MPEG4/ISO/AVC
Duration                                 : 24 min 3 s
Bit rate                                 : 4 100 kb/s
Width                                    : 1 920 pixels
Height                                   : 1 080 pixels
Display aspect ratio                     : 16:9
Frame rate mode                          : Constant
Frame rate                               : 23.976 (24000/1001) FPS
Color space                              : YUV
Chroma subsampling                       : 4:2:0
Bit depth                                : 8 bits
Scan type                                : Progressive
Bits/(Pixel*Frame)                       : 0.082
Stream size                              : 698 MiB (97%)
Writing library                          : x264 core 155
Encoding settings                        : cabac=1 / ref=3 / deblock=1:0:0 / analyse=0x3:0x113 / me=hex / subme=6 / psy=1 / psy_rd=1.00:0.00 / mixed_ref=0 / me_range=16 / chroma_me=1 / trellis=1 / 8x8dct=1 / cqm=0 / deadzone=21,11 / fast_pskip=1 / chroma_qp_offset=-2 / threads=24 / lookahead_threads=4 / sliced_threads=0 / nr=0 / decimate=1 / interlaced=0 / bluray_compat=0 / constrained_intra=0 / bframes=3 / b_pyramid=2 / b_adapt=1 / b_bias=0 / direct=1 / weightb=1 / open_gop=0 / weightp=2 / keyint=250 / keyint_min=23 / scenecut=0 / intra_refresh=0 / rc_lookahead=40 / rc=abr / mbtree=1 / bitrate=4100 / ratetol=1.0 / qcomp=0.60 / qpmin=0 / qpmax=69 / qpstep=4 / vbv_maxrate=4700 / vbv_bufsize=23500 / nal_hrd=none / filler=0 / ip_ratio=1.40 / aq=1:1.00
Default                                  : Yes
Forced                                   : No

Audio
ID                                       : 2
Format                                   : AAC LC
Format/Info                              : Advanced Audio Codec Low Complexity
Codec ID                                 : A_AAC-2
Duration                                 : 24 min 3 s
Bit rate                                 : 132 kb/s
Channel(s)                               : 2 channels
Channel layout                           : L R
Sampling rate                            : 48.0 kHz
Frame rate                               : 46.875 FPS (1024 SPF)
Compression mode                         : Lossy
Delay relative to video                  : -21 ms
Stream size                              : 22.3 MiB (3%)
Language                                 : Japanese
Default                                  : Yes
Forced                                   : No

Shingeki.no.Kyojin.S03.E01-12.FRENCH.720p.BluRay.x264-KAZETV

mot de passe : titan
KAZETV brings to you :

Shingeki.no.Kyojin.S03E12.FRENCH.720p.BluRay.x264-KAZETV

---- Video Info ----

* codec      : X264
* pass       : 2 pass
* framerate  : 23.976 fps
* resolution : 1280x720

---- Audio Info ----

* track     : French
* subtitle  : French Forced

* codec     : DTS 2.0
* bitrate   : 1509 Kbps
* frequence : 48.0 KHZ

---- Packing Info ----

* runtime   : 23min 56s
* size      : 894 Mio
* pack      : 19x50mB

* link      : https://www.animeka.com/animes/detail/shingeki-no-kyojin-s3.html

* note      : Greetz a la foret qui dort, la pierre brillante, au dieu de la mort et au soleil levant.

Films – OAV – Bonus

mot de passe : titan