Death Note 1080p MULTi


Light Yagami, un jeune étudiant surdoué, ramasse un jour le « Death Note », un carnet tenu auparavant par un shinigami (Dieu de la mort), Ryuk, qui apparemment s’ennuyait dans son monde. Il suffit d’écrire le nom d’une personne dans ce carnet, et celle-ci meurt (selon certaines conditions que le shinigami expliquera à Light lors de leur rencontre). C’est ainsi qu’avec le « Death Note » entre les mains, Light décide de débarrasser la planète de tous les criminels pour en faire un monde juste, un monde parfait. Cependant, qui est-il pour juger les gens ? Il devient donc le pire criminel recherché de toute la planète…

Death.Note.2006.MULTi.1080p.BluRay.REMUX.AVC-raton

mot de passe : note
Unique ID                   : 231429196679511852909216804637559806364 (0xAE1BA459650DBB9E87B8BF8850FCD99C)
Complete name               : Death.Note.2006.E37.Le.Nouveau.Monde.MULTi.1080p.BluRay.REMUX.AVC-raton.mkv
Format                      : Matroska
Format version              : Version 2
File size                   : 4.93 GiB
Duration                    : 22 min 34 s
Overall bit rate mode       : Variable
Overall bit rate            : 31.3 Mb/s
Movie name                  : DEATH_NOTE.Title5
Encoded date                : UTC 2019-12-23 12:49:13
Writing application         : DVDFab 11.0.3.1
Writing library             : libebml v1.3.4 + libmatroska v1.4.5

Video
ID                          : 1
Format                      : AVC
Format/Info                 : Advanced Video Codec
Format profile              : High@L4.1
Format settings             : CABAC / 4 Ref Frames
Format settings, CABAC      : Yes
Format settings, Reference  : 4 frames
Codec ID                    : V_MPEG4/ISO/AVC
Duration                    : 22 min 33 s
Bit rate mode               : Variable
Bit rate                    : 29.3 Mb/s
Maximum bit rate            : 35.0 Mb/s
Width                       : 1 920 pixels
Height                      : 1 080 pixels
Display aspect ratio        : 16:9
Frame rate mode             : Constant
Frame rate                  : 23.976 (24000/1001) FPS
Standard                    : NTSC
Color space                 : YUV
Chroma subsampling          : 4:2:0
Bit depth                   : 8 bits
Scan type                   : Progressive
Bits/(Pixel*Frame)          : 0.589
Stream size                 : 4.61 GiB (94%)
Default                     : Yes
Forced                      : No
Color range                 : Limited
Color primaries             : BT.709
Transfer characteristics    : BT.709
Matrix coefficients         : BT.709

Audio #1
ID                          : 2
Format                      : DTS XLL
Format/Info                 : Digital Theater Systems
Commercial name             : DTS-HD Master Audio
Codec ID                    : A_DTS
Duration                    : 22 min 34 s
Bit rate mode               : Variable
Bit rate                    : 990 kb/s
Channel(s)                  : 2 channels
Channel layout              : L R
Sampling rate               : 48.0 kHz
Frame rate                  : 93.750 FPS (512 SPF)
Bit depth                   : 16 bits
Compression mode            : Lossless
Stream size                 : 160 MiB (3%)
Language                    : French
Default                     : Yes
Forced                      : No

Audio #2
ID                          : 3
Format                      : DTS XLL
Format/Info                 : Digital Theater Systems
Commercial name             : DTS-HD Master Audio
Codec ID                    : A_DTS
Duration                    : 22 min 34 s
Bit rate mode               : Variable
Bit rate                    : 982 kb/s
Channel(s)                  : 2 channels
Channel layout              : L R
Sampling rate               : 48.0 kHz
Frame rate                  : 93.750 FPS (512 SPF)
Bit depth                   : 16 bits
Compression mode            : Lossless
Stream size                 : 159 MiB (3%)
Language                    : Japanese
Default                     : No
Forced                      : No

Text #1
ID                          : 4
Format                      : PGS
Codec ID                    : S_HDMV/PGS
Codec ID/Info               : Picture based subtitle format used on BDs/HD-DVDs
Duration                    : 17 min 55 s
Bit rate                    : 155 b/s
Count of elements           : 4
Stream size                 : 20.4 KiB (0%)
Language                    : French
Default                     : No
Forced                      : No

Text #2
ID                          : 5
Format                      : PGS
Codec ID                    : S_HDMV/PGS
Codec ID/Info               : Picture based subtitle format used on BDs/HD-DVDs
Duration                    : 18 min 12 s
Bit rate                    : 28.4 kb/s
Count of elements           : 456
Stream size                 : 3.70 MiB (0%)
Language                    : French
Default                     : No
Forced                      : No

Menu
00:00:00.000                : en:(01)00:00:00:000
00:01:21.039                : en:(02)00:01:21:039
00:10:02.101                : en:(03)00:10:02:101
00:20:02.284                : en:(04)00:20:02:284