Naruto 720p / 1080p MULTi


Dans le village de Konoha vit Naruto, un jeune garçon détesté et craint des villageois. Il est craint du fait qu’il détient en lui Kyuubi (démon renard à neuf queues) d’une incroyable force, qui a tué un grand nombre de personnes. Le ninja le plus puissant de Konoha à l’époque, le quatrième Hokage, Minato Namikaze, réussit à sceller ce démon dans le corps de Naruto.
Malheureusement il y laissa la vie.
C’est ainsi que douze ans plus tard, Naruto rêve de devenir le plus grand Hokage de Konoha afin que tous le reconnaissent à sa juste valeur. Mais la route pour devenir Hokage est très longue et Naruto sera confronté à un bon nombre d’épreuves et devra affronter de nombreux ennemis pour atteindre son but !

Naruto.MULTi.1080p.BluRay.x264-AMB3R

mot de passe : naruto
            db      `7MMM.     ,MMF'`7MM"""Yp,         `7MM"""Mq.           
           ;MM:       MMMb    dPMM    MM    Yb           MM   `MM.          
          ,V^MM.      M YM   ,M MM    MM    dP pd""b.    MM   ,M9           
         ,M  `MM      M  Mb  M' MM    MM"""bg.(O)  `8b   MMmmdM9            
         AbmmmqMA     M  YM.P'  MM    MM    `Y     ,89   MM  YM.            
        A'     VML    M  `YM'   MM    MM    ,9   ""Yb.   MM   `Mb.          
      .AMA.   .AMMA..JML. `'  .JMML..JMMmmmd9       88 .JMML. .JMM.         
                                              (O)  .M'                      
                                               bmmmd'                       
	PRESENT:         

+-----------------------------------------------------------------------+

	Naruto.E001.RERiP.MULTi.1080p.BluRay.x264-AMB3R 

	Release date   : 16/10/2019
	Source         : BD z2  

	Video          : x264 - 2 pass 
	Bitrate        : 12.1 Mb/s
	Resolution     : 1920x1080
	Frame rate     : 23.976 FPS

	Audio          : Fr / Jap DTS 2.0
	Bit rate       : 768 kb/s 
        Subtitle       : French (srt)
	Sampling rate  : 48.0 kHz 
	Duration       : 22 min 55 s
	Size           : 2.18 GiB 
	Package        : 47 x 50 Mo

	Link: https://www.nautiljon.com/animes/naruto.html 

+-----------------------------------------------------------------------+

	Note: Bad fps.

+-----------------------------------------------------------------------+

Naruto.S01.FRENCH.R2DVD.960×728.x264.AAC-raton

Naruto.S02.FRENCH.R2DVD.960×728.x264.AAC-raton

Naruto.S03.FRENCH.R2DVD.960×728.x264.AAC-raton

Naruto.S04.FRENCH.R2DVD.960×728.x264.AAC-raton

Naruto.S05.FRENCH.R2DVD.960×728.x264.AAC-raton

Naruto.S06.Partie.1.FRENCH.R2DVD.960×728.x264.AAC-raton

Naruto.S06.Partie.2.FRENCH.DVDRip-Hi.1280×960.x264.AAC-raton

Naruto.S07.FRENCH.DVDRip-Hi.1280×960.x264.AAC-raton

Naruto.S08.FRENCH.DVDRip-Hi.1280×960.x264.AAC-raton

Naruto.S09.FRENCH.DVDRip-Hi.1280×960.x264.AAC-raton

mot de passe : naruto
Unique ID                   : 251230302257614697812822653364541767789 (0xBD01323A86B8046E8B65F18AFF9AC06D)
Complete name               : Naruto.001.Et.Voici.Naruto.Uzumaki.FRENCH.R2DVD.960x728.x264.AAC-raton.mkv
Format                      : Matroska
Format version              : Version 4
File size                   : 555 MiB
Duration                    : 23 min 25 s
Overall bit rate            : 3 309 kb/s
Encoded date                : UTC 2018-06-07 23:44:33
Writing application         : mkvmerge v8.9.0 ('Father Daughter') 64bit
Writing library             : libebml v1.3.3 + libmatroska v1.4.4

Video
ID                          : 1
Format                      : AVC
Format/Info                 : Advanced Video Codec
Format profile              : High@L4.1
Format settings             : CABAC / 16 Ref Frames
Format settings, CABAC      : Yes
Format settings, Reference  : 16 frames
Codec ID                    : V_MPEG4/ISO/AVC
Duration                    : 23 min 20 s
Bit rate                    : 3 100 kb/s
Width                       : 960 pixels
Height                      : 728 pixels
Display aspect ratio        : 4:3
Frame rate mode             : Constant
Frame rate                  : 23.976 (24000/1001) FPS
Color space                 : YUV
Chroma subsampling          : 4:2:0
Bit depth                   : 8 bits
Scan type                   : Progressive
Bits/(Pixel*Frame)          : 0.185
Stream size                 : 518 MiB (93%)
Writing library             : x264 core 130 r2273 b3065e6
Encoding settings           : cabac=1 / ref=16 / deblock=1:0:0 / analyse=0x3:0x133 / me=umh / subme=9 / psy=1 / psy_rd=0.80:0.00 / mixed_ref=1 / me_range=24 / chroma_me=1 / trellis=0 / 8x8dct=1 / cqm=0 / deadzone=21,11 / fast_pskip=1 / chroma_qp_offset=-2 / threads=12 / lookahead_threads=3 / sliced_threads=0 / nr=0 / decimate=1 / interlaced=0 / bluray_compat=0 / constrained_intra=0 / bframes=12 / b_pyramid=2 / b_adapt=2 / b_bias=0 / direct=1 / weightb=1 / open_gop=0 / weightp=2 / keyint=250 / keyint_min=23 / scenecut=40 / intra_refresh=0 / rc_lookahead=40 / rc=abr / mbtree=1 / bitrate=3100 / ratetol=1.0 / qcomp=0.80 / qpmin=8 / qpmax=27 / qpstep=4 / ip_ratio=1.40 / aq=1:0.90
Default                     : Yes
Forced                      : No

Audio
ID                          : 2
Format                      : AAC LC
Format/Info                 : Advanced Audio Codec Low Complexity
Codec ID                    : A_AAC-2
Duration                    : 23 min 25 s
Bit rate                    : 218 kb/s
Channel(s)                  : 2 channels
Channel layout              : L R
Sampling rate               : 96.0 kHz
Frame rate                  : 93.750 FPS (1024 SPF)
Compression mode            : Lossy
Stream size                 : 36.5 MiB (7%)
Language                    : French
Default                     : Yes
Forced                      : No
Unique ID                   : 250052080671146319704492405845276117061 (0xBC1E476B5EC5E77C9A3684248B624845)
Complete name               : Naruto.136.Enfin.Une.Mission.De.Rang.S.FRENCH.DVDRip-Hi.1280x960.x264.AAC-raton.mkv
Format                      : Matroska
Format version              : Version 4
File size                   : 269 MiB
Duration                    : 23 min 34 s
Overall bit rate            : 1 596 kb/s
Encoded date                : UTC 2018-10-28 08:29:55
Writing application         : mkvmerge v8.9.0 ('Father Daughter') 64bit
Writing library             : libebml v1.3.3 + libmatroska v1.4.4

Video
ID                          : 1
Format                      : AVC
Format/Info                 : Advanced Video Codec
Format profile              : High@L3.2
Format settings             : CABAC / 4 Ref Frames
Format settings, CABAC      : Yes
Format settings, Reference  : 4 frames
Codec ID                    : V_MPEG4/ISO/AVC
Duration                    : 23 min 34 s
Bit rate                    : 1 397 kb/s
Width                       : 1 280 pixels
Height                      : 960 pixels
Display aspect ratio        : 4:3
Frame rate mode             : Constant
Frame rate                  : 29.970 (30000/1001) FPS
Color space                 : YUV
Chroma subsampling          : 4:2:0
Bit depth                   : 8 bits
Scan type                   : Progressive
Bits/(Pixel*Frame)          : 0.038
Stream size                 : 236 MiB (88%)
Writing library             : x264 core 93 r1538bm bd72d46
Encoding settings           : cabac=1 / ref=3 / deblock=1:1:2 / analyse=0x3:0x113 / me=umh / subme=6 / psy=1 / psy_rd=0.00:0.00 / mixed_ref=1 / me_range=16 / chroma_me=1 / trellis=0 / 8x8dct=1 / cqm=0 / deadzone=21,11 / fast_pskip=1 / chroma_qp_offset=0 / threads=6 / sliced_threads=1 / slices=6 / nr=0 / decimate=1 / interlaced=0 / constrained_intra=0 / bframes=3 / b_pyramid=2 / b_adapt=2 / b_bias=0 / direct=1 / wpredb=1 / wpredp=2 / keyint=250 / keyint_min=25 / scenecut=40 / intra_refresh=0 / rc_lookahead=60 / rc=2pass / mbtree=1 / bitrate=1397 / ratetol=1.0 / qcomp=0.60 / qpmin=10 / qpmax=51 / qpstep=4 / cplxblur=20.0 / qblur=0.5 / ip_ratio=1.40 / aq=1:1.00
Default                     : Yes
Forced                      : No

Audio
ID                          : 2
Format                      : AAC LC
Format/Info                 : Advanced Audio Codec Low Complexity
Codec ID                    : A_AAC-2
Duration                    : 23 min 34 s
Bit rate                    : 192 kb/s
Channel(s)                  : 2 channels
Channel layout              : L R
Sampling rate               : 44.1 kHz
Frame rate                  : 43.066 FPS (1024 SPF)
Compression mode            : Lossy
Stream size                 : 32.8 MiB (12%)
Language                    : French
Default                     : Yes
Forced                      : No

Naruto Saisons 1 à 9 VOSTFR DivX

mot de passe : naruto
Complete name               : Naruto 220.avi
Format                      : AVI
Format/Info                 : Audio Video Interleave
Format profile              : OpenDML
Format settings             : rec
File size                   : 170 MiB
Duration                    : 23 min 4 s
Overall bit rate            : 1 030 kb/s
Writing application         : Windows Movie Maker 2.1

Video
ID                          : 0
Format                      : MPEG-4 Visual
Format profile              : Advanced Simple@L5
Format settings             : BVOP2
Format settings, BVOP       : 2
Format settings, QPel       : No
Format settings, GMC        : No warppoints
Format settings, Matrix     : Default (H.263)
Muxing mode                 : Packed bitstream
Codec ID                    : XVID
Codec ID/Hint               : XviD
Duration                    : 23 min 4 s
Bit rate                    : 898 kb/s
Width                       : 640 pixels
Height                      : 480 pixels
Display aspect ratio        : 4:3
Frame rate                  : 23.976 (24000/1001) FPS
Color space                 : YUV
Chroma subsampling          : 4:2:0
Bit depth                   : 8 bits
Scan type                   : Progressive
Compression mode            : Lossy
Bits/(Pixel*Frame)          : 0.122
Stream size                 : 148 MiB (87%)
Writing library             : XviD 1.1.2 (UTC 2006-11-01)

Audio
ID                          : 1
Format                      : MPEG Audio
Format version              : Version 1
Format profile              : Layer 3
Format settings             : Joint stereo / MS Stereo
Codec ID                    : 55
Codec ID/Hint               : MP3
Duration                    : 23 min 4 s
Bit rate mode               : Constant
Bit rate                    : 128 kb/s
Channel(s)                  : 2 channels
Sampling rate               : 48.0 kHz
Compression mode            : Lossy
Stream size                 : 21.1 MiB (12%)
Alignment                   : Aligned on interleaves
Interleave, duration        : 749  ms (17.95 video frames)
Interleave, preload duratio : 216  ms
Title                       : final

Naruto Film 1 – Naruto et la princesse des neiges (HD 720p).mkv

Naruto Film 2 – La légende de la Pierre de Guelel (HD 720p).mkv

Naruto Film 3 – Mission spéciale au Pays de la Lune (HD 720p).mkv

mot de passe : naruto