My Hero Academia 720p/1080p MULTi


Dans un futur proche suite à une mutation génétique, 80% de la population mondiale possède des super-pouvoirs appelés « Alters ». Les super-héros protègent la population mondiale face aux super-vilains qui utilisent leur Alter à des fins maléfiques. Le plus célèbre des super-héro se nomme All Might. Izuku Midoriya en est fan, et rêve d’intégrer la filière super-héroïque du lycée Yuei pour suivre les traces de son idole ainsi devenir le plus grand des super-héros.
Malheureusement, Izuku ne possède pas de pouvoir.

My.Hero.Academia.S01.MULTi.1080p.BluRay.x264-KAZETV

My.Hero.Academia.S02.MULTi.1080p.BluRay.x264-KAZETV

My.Hero.Academia.S03.SUBFRENCH.1080p.WEBRip.x264-WiTS

mot de passe : hero
KAZETV brings to you :

My.Hero.Academia.S01E01.MULTi.1080p.BluRay.x264-KAZETV

---- Video Info ----

* codec      : X264
* pass       : 2 pass
* framerate  : 23.976 fps
* resolution : 1920x1080

---- Audio Info ----

* track     : Japanese & French
* subtitle  : French & French Forced

* codec     : AC3 2.0
* bitrate   : 448 Kbps
* frequence : 48.0 KHZ

---- Packing Info ----

* runtime   : 24min 30s
* size      : 1.45 Gio
* pack      : 32x50mB

* link      : http://www.animeka.com/animes/detail/boku-no-hero-academia.html

* note      : Greetz a la foret qui dort, la vague geante, au poisson cru et au soleil levant.
KAZETV brings to you :

My.Hero.Academia.S02E26.FiNAL.MULTi.1080p.BluRay.x264-KAZETV

---- Video Info ----

* codec      : X264
* pass       : 2 pass
* framerate  : 23.976 fps
* resolution : 1920x1080

---- Audio Info ----

* track     : Japanese / French
* subtitle  : French   / French Forced

* codec     : AC3 2.0
* bitrate   : 448 Kbps
* frequence : 48.0 KHZ

---- Packing Info ----

* runtime   : 24min 01s
* size      : 1.45 Gio
* pack      : 32x50mB

* link      : https://www.animeka.com/animes/detail/boku-no-hero-academia2.html

* note      : Greetz a la foret qui dort, la pierre brillante, au poisson cru et au soleil levant.
__        ___ _____ ____  
\ \      / (_)_   _/ ___| 
 \ \ /\ / /| | | | \___ \ 
  \ V  V / | | | |  ___) |
   \_/\_/  |_| |_| |____/ 
                          
  
Video   : ADN (Untouched)
Audio   : ADN (Untouched)
Sub     : ADN
TMDB    : https://www.themoviedb.org/tv/65930
  
======================================|Complete NFO|========================================
  
General
Complete name                            : My.Hero.Academia.S03E25.SUBFRENCH.1080p.WEBRip.x264-WiTS.mkv
Format                                   : Matroska
Format version                           : Version 4
File size                                : 551 MiB
Duration                                 : 23 min 35 s
Overall bit rate                         : 3 268 kb/s
Movie name                               : My.Hero.Academia.S03E25.SUBFRENCH.1080p.WEBRip.x264-WiTS
Encoded date                             : UTC 2019-02-01 01:31:44
Writing application                      : mkvmerge v30.1.0 ('Forever And More') 64-bit
Writing library                          : libebml v1.3.6 + libmatroska v1.4.9

Video
ID                                       : 1
Format                                   : AVC
Format/Info                              : Advanced Video Codec
Format profile                           : High@L4.1
Format settings                          : CABAC / 4 Ref Frames
Format settings, CABAC                   : Yes
Format settings, ReFrames                : 4 frames
Codec ID                                 : V_MPEG4/ISO/AVC
Duration                                 : 23 min 35 s
Bit rate                                 : 3 100 kb/s
Width                                    : 1 920 pixels
Height                                   : 1 080 pixels
Display aspect ratio                     : 16:9
Frame rate mode                          : Constant
Frame rate                               : 23.976 (24000/1001) FPS
Color space                              : YUV
Chroma subsampling                       : 4:2:0
Bit depth                                : 8 bits
Scan type                                : Progressive
Bits/(Pixel*Frame)                       : 0.062
Stream size                              : 524 MiB (95%)
Writing library                          : x264 core 140 r2377 1ca7bb9
Encoding settings                        : cabac=1 / ref=4 / deblock=1:1:1 / analyse=0x3:0x113 / me=hex / subme=7 / psy=1 / psy_rd=0.40:0.00 / mixed_ref=1 / me_range=16 / chroma_me=1 / trellis=1 / 8x8dct=1 / cqm=0 / deadzone=21,11 / fast_pskip=1 / chroma_qp_offset=-2 / threads=2 / lookahead_threads=1 / sliced_threads=0 / nr=0 / decimate=1 / interlaced=0 / bluray_compat=0 / constrained_intra=0 / bframes=5 / b_pyramid=2 / b_adapt=1 / b_bias=0 / direct=1 / weightb=1 / open_gop=0 / weightp=2 / keyint=96 / keyint_min=9 / scenecut=0 / intra_refresh=0 / rc_lookahead=40 / rc=2pass / mbtree=1 / bitrate=3100 / ratetol=1.0 / qcomp=0.60 / qpmin=0 / qpmax=69 / qpstep=4 / cplxblur=20.0 / qblur=0.5 / vbv_maxrate=16000 / vbv_bufsize=78125 / nal_hrd=none / filler=0 / ip_ratio=1.40 / aq=1:0.60
Default                                  : Yes
Forced                                   : No

Audio
ID                                       : 2
Format                                   : AAC LC
Format/Info                              : Advanced Audio Codec Low Complexity
Codec ID                                 : A_AAC-2
Duration                                 : 23 min 35 s
Bit rate                                 : 160 kb/s
Channel(s)                               : 2 channels
Channel layout                           : L R
Sampling rate                            : 48.0 kHz
Frame rate                               : 46.875 FPS (1024 SPF)
Compression mode                         : Lossy
Delay relative to video                  : -33 ms
Stream size                              : 27.0 MiB (5%)
Language                                 : Japanese
Default                                  : Yes
Forced                                   : No

Text
ID                                       : 3
Format                                   : ASS
Codec ID                                 : S_TEXT/ASS
Codec ID/Info                            : Advanced Sub Station Alpha
Duration                                 : 23 min 33 s
Bit rate                                 : 132 b/s
Count of elements                        : 414
Compression mode                         : Lossless
Stream size                              : 22.9 KiB (0%)
Language                                 : French
Default                                  : Yes
Forced                                   : No


  
PS : By the way, Where is The Scene ?

My.Hero.Academia.S02.FRENCH.720p.BluRay.x264-KAZETV

mot de passe : hero
KAZETV brings to you :

My.Hero.Academia.S02E01.FRENCH.720p.BluRay.x264-KAZETV

---- Video Info ----

* codec      : X264
* pass       : 2 pass
* framerate  : 23.976 fps
* resolution : 1280x720

---- Audio Info ----

* track     : French
* subtitle  : French Forced

* codec     : AC3 2.0
* bitrate   : 448 Kbps
* frequence : 48.0 KHZ

---- Packing Info ----

* runtime   : 24min 01s
* size      : 743 Mio
* pack      : 16x50mB

* link      : https://www.animeka.com/animes/detail/boku-no-hero-academia2.html

* note      : Greetz a la foret qui dort, la pierre brillante, au poisson cru et au soleil levant.

My.Hero.Academia.Two.Heroes.2018.MULTi.1080p.BluRay.x264-KAZETV.mkv

My.Hero.Academia.Two.Heroes.2018.FRENCH.720p.BluRay.x264-KAZETV.mkv

mot de passe : hero
KAZETV brings to you :

My.Hero.Academia.Two.Heroes.2018.MULTi.1080p.BluRay.x264-KAZETV

---- Video Info ----

* codec      : X264
* pass       : 2 pass
* framerate  : 23.976 fps
* resolution : 1920x1080

---- Audio Info ----

* track     : Japanese / French
* subtitle  : French

* codec     : DTS 5.1
* bitrate   : 1509 Kbps
* frequence : 48.0 KHZ

---- Packing Info ----

* runtime   : 1h 35min 49s
* size      : 8.74 Gio
* pack      : 94x100mB

* link      : https://www.animeka.com/animes/detail/boku-no-hero-academia-film.html

* note      : Greetz a la foret qui dort, la pierre brillante, au dieu de la mort et au soleil levant.
KAZETV brings to you :

My.Hero.Academia.Two.Heroes.2018.FRENCH.720p.BluRay.x264-KAZETV

---- Video Info ----

* codec      : X264
* pass       : 2 pass
* framerate  : 23.976 fps
* resolution : 1280x720

---- Audio Info ----

* track     : French
* subtitle  : N/A

* codec     : DTS 5.1
* bitrate   : 1509 Kbps
* frequence : 48.0 KHZ

---- Packing Info ----

* runtime   : 1h 35min 49s
* size      : 3.27 Gio
* pack      : 71x50mB

* link      : https://www.animeka.com/animes/detail/boku-no-hero-academia-film.html

* note      : Greetz a la foret qui dort, la pierre brillante, au dieu de la mort et au soleil levant.