Steins Gate 1080p MULTi


Dans un quartier d’Otaku à Akihabara, un groupe d’amis modifient leurs micro-ondes de manière à en faire un dispositif qui leur permet d’envoyer des messages écrits vers le passé.
Une organisation, CERN, a mené différentes recherches à propos des voyages temporels.
À présent, le groupe, ayant effectué plusieurs expériences diverses, doit absolument éviter de se faire capturer par cette organisation qui les perturbent en les traquant…

Steins.Gate.MULTi.1080p.BluRay.x264-AMB3R

Steins.Gate.0.VOSTFR.1080p.BluRay.x264-BANANABREAD

mot de passe : gate
            db      `7MMM.     ,MMF'`7MM"""Yp,         `7MM"""Mq.           
           ;MM:       MMMb    dPMM    MM    Yb           MM   `MM.          
          ,V^MM.      M YM   ,M MM    MM    dP pd""b.    MM   ,M9           
         ,M  `MM      M  Mb  M' MM    MM"""bg.(O)  `8b   MMmmdM9            
         AbmmmqMA     M  YM.P'  MM    MM    `Y     ,89   MM  YM.            
        A'     VML    M  `YM'   MM    MM    ,9   ""Yb.   MM   `Mb.          
      .AMA.   .AMMA..JML. `'  .JMML..JMMmmmd9       88 .JMML. .JMM.         
                                              (O)  .M'                      
                                               bmmmd'                       
	PRESENT:         

+-----------------------------------------------------------------------+

	Steins.Gate.E24.FiNAL.MULTi.1080p.BluRay.x264-AMB3R 

	Release date   : 13/01/2017
	Source         : BD z2 

	Video          : x264 - 2 pass 
	Bitrate        : 7 615 kb/s
	Resolution     : 1920x1080
	Frame rate     : 23.976 FPS

	Audio          : Fr AC3 2.0 / Jap DTS 2.0
	Bit rate       : 448 kb/s / 639 kb/s
    Subtitle       : Fr / Fr Subforced (srt)
	Sampling rate  : 48.0 kHz
	Duration       : 23 min 57 s
	Size	       : 1.46 GiB 
	Package        : 32 x 50 Mo

	Link: http://www.animeka.com/animes/detail/steins-gate.html 

+-----------------------------------------------------------------------+

General
Unique ID                                : 118518571925658371861424488915584168669 (0x5929D8BEF4D8292A36C3AE59E7B032DD)
Complete name                            : Steins.Gate.0.E23.VOSTFR.1080p.BluRay.x264-BANANABREAD.mkv
Format                                   : Matroska
Format version                           : Version 4 / Version 2
File size                                : 1.88 GiB
Duration                                 : 23 min 59 s
Overall bit rate                         : 11.2 Mb/s
Movie name                               : Steins.Gate.0.E23.VOSTFR.1080p.BluRay.x264-BANANABREAD.mkv
Encoded date                             : UTC 2020-02-28 20:00:40
Writing application                      : mkvmerge v43.0.0 ('The Quartermaster') 64-bit
Writing library                          : libebml v1.3.10 + libmatroska v1.5.2

Video
ID                                       : 2
Format                                   : AVC
Format/Info                              : Advanced Video Codec
Format profile                           : High@L4
Format settings, CABAC                   : Yes
Format settings, ReFrames                : 4 frames
Codec ID                                 : V_MPEG4/ISO/AVC
Duration                                 : 23 min 59 s
Bit rate                                 : 9 000 kb/s
Width                                    : 1 920 pixels
Height                                   : 1 080 pixels
Display aspect ratio                     : 16:9
Frame rate mode                          : Constant
Frame rate                               : 23.976 (24000/1001) FPS
Color space                              : YUV
Chroma subsampling                       : 4:2:0
Bit depth                                : 8 bits
Scan type                                : Progressive
Bits/(Pixel*Frame)                       : 0.181
Stream size                              : 1.51 GiB (80%)
Writing library                          : x264 core 148 r2748 97eaef2
Encoding settings                        : cabac=1 / ref=4 / deblock=1:1:1 / analyse=0x3:0x133 / me=umh / subme=10 / psy=1 / psy_rd=0.40:0.00 / mixed_ref=1 / me_range=16 / chroma_me=1 / trellis=2 / 8x8dct=1 / cqm=0 / deadzone=21,11 / fast_pskip=1 / chroma_qp_offset=-2 / threads=12 / lookahead_threads=1 / sliced_threads=0 / nr=0 / decimate=1 / interlaced=0 / bluray_compat=0 / constrained_intra=0 / bframes=5 / b_pyramid=2 / b_adapt=2 / b_bias=0 / direct=3 / weightb=1 / open_gop=0 / weightp=2 / keyint=250 / keyint_min=23 / scenecut=40 / intra_refresh=0 / rc_lookahead=60 / rc=2pass / mbtree=1 / bitrate=9000 / ratetol=1.0 / qcomp=0.60 / qpmin=0 / qpmax=69 / qpstep=4 / cplxblur=20.0 / qblur=0.5 / ip_ratio=1.40 / aq=1:0.60
Language                                 : Japanese
Default                                  : Yes
Forced                                   : No

Audio
ID                                       : 3
Format                                   : DTS
Format/Info                              : Digital Theater Systems
Format profile                           : MA / Core
Mode                                     : 16
Format settings, Endianness              : Big
Codec ID                                 : A_DTS
Duration                                 : 23 min 59 s
Bit rate mode                            : Variable / Constant
Bit rate                                 : 2 182 kb/s / 1 509 kb/s
Channel(s)                               : 2 channels
Channel positions                        : Front: L R
Sampling rate                            : 48.0 kHz
Frame rate                               : 93.750 FPS (512 spf)
Bit depth                                : 24 bits
Compression mode                         : Lossless / Lossy
Delay relative to video                  : 10 ms
Stream size                              : 375 MiB (20%)
Language                                 : Japanese
Default                                  : Yes
Forced                                   : No

Text
ID                                       : 1
Format                                   : ASS
Codec ID                                 : S_TEXT/ASS
Codec ID/Info                            : Advanced Sub Station Alpha
Duration                                 : 23 min 12 s
Bit rate                                 : 108 b/s
Count of elements                        : 352
Compression mode                         : Lossless
Stream size                              : 18.4 KiB (0%)
Title                                    : [Français (France)]
Language                                 : French
Default                                  : Yes
Forced                                   : No

Steins Gate – Films & OAV

mot de passe : gate