Cowboy Bebop 1080p MULTi


Cowboy Bebop nous raconte les déboires de Spike et Jet, deux célibataires qui se sont associés dans la chasse aux hors-la-loi dont la tête est mise à prix. Tous les deux sans argent, ils sillonnent l’espace à bord du Bebop afin de renflouer leur compte en banque ainsi que leur frigo. Mais bientôt ils ne seront plus seuls car leurs chasses à l’homme les amèneront à croiser le chemin d’un chien intelligent, Ein, d’une belle brune, Faye et d’une jeune hackeur au comportement loufoque, Ed.

Cowboy.Bebop.MULTi.1080p.BluRay.x264-KAZETV

mot de passe : spike
KAZETV brings to you :

Cowboy.Bebop.E26.FiNAL.MULTi.1080p.BluRay.x264-KAZETV

---- Video Info ----

* codec      : X264
* pass       : 2 pass
* framerate  : 23.976 fps
* resolution : 1440x1080

---- Audio Info ----

* track     : Japanese & French
* subtitle  : French & French Forced

* codec     : DTS 5.1
* bitrate   : 1509 Kbps
* frequence : 48.0 KHZ

---- Packing Info ----

* runtime   : 23min 43s
* size      : 2.18 Gio
* pack      : 47x50mB

* link      : http://www.animeka.com/animes/detail/cowboy-bebop.html

* note      : Greetz a la foret qui dort, la vague geante, au poisson cru et au soleil levant.

Cowboy.Bebop.Tengoku.No.Tobira.2001.MULTI.VFI.1080p.BluRay.x264.FLAC.5.1-HDForever

mot de passe : spike
Source VO : Cowboy Bebop - Tengoku no Tobira [BDrip 1776x960 x264 FLAC].mkv
Source Audio VF : Cowboy Bebop - 2001 VFF 720P HDLight X265 AC3 5.1 - Calinos1.mkv
Source Full StFr SRT : Cowboy Bebop Knockin` on Heaven`s Door (2001) [720p,BluRay,x264] - THORA.srt

General
Unique ID : 185468887308570464029122930961508041200 (0x8B8802255237C6DBB547AFE7B6E981F0)
Complete name : Cowboy.Bebop.Tengoku.No.Tobira.2001.MULTI.VFI.1080p.BluRay.x264.FLAC.5.1-HDForever.mkv
Format : Matroska
Format version : Version 4 / Version 2
File size : 13.9 GiB
Duration : 1 h 55 min
Overall bit rate mode : Variable
Overall bit rate : 17.2 Mb/s
Movie name : Cowboy Bebop: Tengoku no tobira (2001)
Encoded date : UTC 2017-11-26 14:31:58
Writing application : mkvmerge v18.0.0 ('Apricity') 64-bit
Writing library : libebml v1.3.5 + libmatroska v1.4.8

Video
ID : 1
Format : AVC
Format/Info : Advanced Video Codec
Format profile : High@L4.1
Format settings : CABAC / 4 Ref Frames
Format settings, CABAC : Yes
Format settings, RefFrames : 4 frames
Codec ID : V_MPEG4/ISO/AVC
Duration : 1 h 54 min
Bit rate : 15.0 Mb/s
Width : 1 776 pixels
Height : 960 pixels
Display aspect ratio : 1.85:1
Frame rate mode : Constant
Frame rate : 23.976 (24000/1001) FPS
Color space : YUV
Chroma subsampling : 4:2:0
Bit depth : 8 bits
Scan type : Progressive
Bits/(Pixel*Frame) : 0.367
Stream size : 12.0 GiB (87%)
Title : Cowboy Bebop - Le Film (2001)
Writing library : x264 core 80 r1376M 3feaec2
Encoding settings : cabac=1 / ref=4 / deblock=1:-2:-2 / analyse=0x3:0x133 / me=umh / subme=9 / psy=1 / psy_rd=0.6:0.0 / mixed_ref=1 / me_range=24 / chroma_me=1 / trellis=2 / 8x8dct=1 / cqm=0 / deadzone=21,11 / fast_pskip=1 / chroma_qp_offset=-2 / threads=12 / sliced_threads=0 / nr=0 / decimate=0 / mbaff=0 / constrained_intra=0 / bframes=8 / b_pyramid=2 / b_adapt=2 / b_bias=0 / direct=3 / wpredb=1 / wpredp=2 / keyint=250 / keyint_min=25 / scenecut=40 / rc=2pass / mbtree=0 / bitrate=15000 / ratetol=1.0 / qcomp=0.60 / qpmin=9 / qpmax=28 / qpstep=4 / cplxblur=20.0 / qblur=0.5 / ip_ratio=1.40 / pb_ratio=1.30 / aq=1:1.00
Language : Japanese
Default : Yes
Forced : No

Audio #1
ID : 2
Format : FLAC
Format/Info : Free Lossless Audio Codec
Codec ID : A_FLAC
Duration : 1 h 55 min
Bit rate mode : Variable
Bit rate : 1 947 kb/s
Channel(s) : 6 channels
Channel positions : Front: L C R, Side: L R, LFE
Sampling rate : 48.0 kHz
Frame rate : 11.719 FPS (4096 SPF)
Bit depth : 24 bits
Stream size : 1.57 GiB (11%)
Title : VO - FLAC 5.1
Writing library : libFLAC 1.2.1 (UTC 2007-09-17)
Language : Japanese
Default : No
Forced : No

Audio #2
ID : 3
Format : AC-3
Format/Info : Audio Coding 3
Codec ID : A_AC3
Duration : 1 h 54 min
Bit rate mode : Constant
Bit rate : 320 kb/s
Channel(s) : 6 channels
Channel positions : Front: L C R, Side: L R, LFE
Sampling rate : 48.0 kHz
Frame rate : 31.250 FPS (1536 SPF)
Bit depth : 16 bits
Compression mode : Lossy
Stream size : 263 MiB (2%)
Title : VFI - AC3 5.1
Language : French
Service kind : Complete Main
Default : Yes
Forced : Yes

Text #1
ID : 4
Format : UTF-8
Codec ID : S_TEXT/UTF8
Codec ID/Info : UTF-8 Plain Text
Duration : 1 h 54 min
Bit rate : 43 b/s
Count of elements : 1049
Stream size : 36.2 KiB (0%)
Title : Full Fr SRT
Language : French
Default : No
Forced : No

Text #2
ID : 5
Format : UTF-8
Codec ID : S_TEXT/UTF8
Codec ID/Info : UTF-8 Plain Text
Duration : 1 h 53 min
Bit rate : 0 b/s
Count of elements : 13
Stream size : 298 Bytes (0%)
Title : Fr Forced SRT
Language : French
Default : Yes
Forced : Yes