Dragon Ball GT 480p DVDRip


L’histoire commence dix ans après la fin de Dragon Ball Z, quand Son Gokû est transformé en enfant, à cause de Pilaf, par le Dragon sacré. Il doit rechercher les Dragon Balls pour redevenir normal et surtout sauver la terre qui, si les dragon balls ne sont pas réunies au bout d’un an, se désintègrera. Il part donc avec Trunks et Pan (qui s’est invitée sans leur autorisation) rechercher ces boules de cristal éparpillées dans toute la galaxie.

Dragon Ball GT MULTi.DVDRiP.x264-Repack-AsgardProject

mot de passe : dbgt
Unique ID                   : 224108605959036445651453219011511154362 (0xA899BF5C3C10E014BD86E27DCDFF76BA)
Complete name               : 01 - La métamorphose de Sangoku.mkv
Format                      : Matroska
Format version              : Version 1
File size                   : 313 MiB
Duration                    : 24 min 38 s
Overall bit rate            : 1 774 kb/s
Encoded date                : UTC 2007-11-09 20:38:20
Writing application         : mkvmerge v2.1.0 ('Another Place To Fall') built on Aug 19 2007 13:40:07
Writing library             : libebml v0.7.7 + libmatroska v0.8.1
Attachments                 : Airstream.TTF / bip.ttf / comic.ttf / gogeta.jpg / Katanf.ttf / KINKEE.TTF / Luster_Edge.ttf / PACHYDER.TTF / Saiyan-Sans.ttf / Saiyan-Sans_Left_Oblique.ttf / Saiyan-Sans_Right_Oblique.ttf

Video
ID                          : 1
Format                      : AVC
Format/Info                 : Advanced Video Codec
Format profile              : High@L5.1
Format settings             : CABAC / 2 Ref Frames
Format settings, CABAC      : Yes
Format settings, Reference  : 2 frames
Codec ID                    : V_MS/VFW/FOURCC / H264
Duration                    : 24 min 38 s
Bit rate                    : 1 450 kb/s
Width                       : 736 pixels
Height                      : 540 pixels
Display aspect ratio        : 4:3
Frame rate mode             : Constant
Frame rate                  : 29.970 FPS
Color space                 : YUV
Chroma subsampling          : 4:2:0
Bit depth                   : 8 bits
Scan type                   : Progressive
Bits/(Pixel*Frame)          : 0.122
Stream size                 : 256 MiB (82%)
Writing library             : x264 core 52 svn-573
Encoding settings           : cabac=1 / ref=1 / deblock=1:0:0 / analyse=0x3:0x113 / me=hex / subme=5 / brdo=0 / mixed_ref=0 / me_range=16 / chroma_me=1 / trellis=1 / 8x8dct=1 / cqm=0 / deadzone=21,11 / chroma_qp_offset=0 / slices=1 / nr=0 / decimate=1 / mbaff=0 / bframes=2 / b_pyramid=0 / b_adapt=1 / b_bias=0 / direct=2 / wpredb=1 / bime=0 / keyint=250 / keyint_min=25 / scenecut=40 / rc=cqp / qp=20 / ip_ratio=1.40 / pb_ratio=1.30
Language                    : English
Default                     : Yes
Forced                      : No

Audio #1
ID                          : 2
Format                      : AC-3
Format/Info                 : Audio Coding 3
Commercial name             : Dolby Digital
Codec ID                    : A_AC3
Duration                    : 24 min 38 s
Bit rate mode               : Constant
Bit rate                    : 96.0 kb/s
Channel(s)                  : 2 channels
Channel layout              : L R
Sampling rate               : 48.0 kHz
Frame rate                  : 31.250 FPS (1536 SPF)
Bit depth                   : 16 bits
Compression mode            : Lossy
Delay relative to video     : -67 ms
Stream size                 : 16.9 MiB (5%)
Title                       : Francais - French
Language                    : French
Service kind                : Complete Main
Default                     : No
Forced                      : No

Audio #2
ID                          : 3
Format                      : AC-3
Format/Info                 : Audio Coding 3
Commercial name             : Dolby Digital
Codec ID                    : A_AC3
Duration                    : 24 min 38 s
Bit rate mode               : Constant
Bit rate                    : 96.0 kb/s
Channel(s)                  : 2 channels
Channel layout              : L R
Sampling rate               : 48.0 kHz
Frame rate                  : 31.250 FPS (1536 SPF)
Bit depth                   : 16 bits
Compression mode            : Lossy
Delay relative to video     : -67 ms
Stream size                 : 16.9 MiB (5%)
Title                       : Japonais - Japanese
Language                    : Japanese
Service kind                : Complete Main
Default                     : Yes
Forced                      : No

Audio #3
ID                          : 4
Format                      : AC-3
Format/Info                 : Audio Coding 3
Commercial name             : Dolby Digital
Codec ID                    : A_AC3
Duration                    : 24 min 38 s
Bit rate mode               : Constant
Bit rate                    : 96.0 kb/s
Channel(s)                  : 2 channels
Channel layout              : L R
Sampling rate               : 48.0 kHz
Frame rate                  : 31.250 FPS (1536 SPF)
Bit depth                   : 16 bits
Compression mode            : Lossy
Delay relative to video     : -67 ms
Stream size                 : 16.9 MiB (5%)
Title                       : Anglais - English
Language                    : English
Service kind                : Complete Main
Default                     : No
Forced                      : No

Text #1
ID                          : 5
Format                      : ASS
Codec ID                    : S_TEXT/ASS
Codec ID/Info               : Advanced Sub Station Alpha
Compression mode            : Lossless
Title                       : Francais - French VF
Language                    : French
Default                     : No
Forced                      : No

Text #2
ID                          : 6
Format                      : ASS
Codec ID                    : S_TEXT/ASS
Codec ID/Info               : Advanced Sub Station Alpha
Compression mode            : Lossless
Title                       : Francais - French VOSTFR
Language                    : French
Default                     : Yes
Forced                      : No

Text #3
ID                          : 7
Format                      : ASS
Codec ID                    : S_TEXT/ASS
Codec ID/Info               : Advanced Sub Station Alpha
Compression mode            : Lossless
Title                       : Anglais - English VEng
Language                    : English
Default                     : No
Forced                      : No

Text #4
ID                          : 8
Format                      : ASS
Codec ID                    : S_TEXT/ASS
Codec ID/Info               : Advanced Sub Station Alpha
Compression mode            : Lossless
Title                       : Anglais - English VOSTVEng
Language                    : English
Default                     : No
Forced                      : No

Text #5
ID                          : 9
Format                      : ASS
Codec ID                    : S_TEXT/ASS
Codec ID/Info               : Advanced Sub Station Alpha
Compression mode            : Lossless
Title                       : Chinois-Japonais (Chinese-Japanese)
Language                    : Japanese
Default                     : No
Forced                      : No

Menu
00:00:00.000                : :Generique (Debut) - Opening
00:01:48.200                : :Episode précédent - Last episode
00:01:48.720                : :Titre - Title
00:11:49.000                : :Entract - Pubs
00:22:32.550                : :Generique (Fin) - Ending
00:24:08.300                : :Prochain Episode - Next episode

Dragon.Ball.GT.TV.SPECIAL.Cent.Ans.Apres.MULTi.1080p.BluRay.REMUX.AVC-raton.mkv

mot de passe : dbgt
Unique ID                   : 217307481682795101906188862736098889338 (0xA37BE60B62AA4B28E1D02F6CF0838E7A)
Complete name               : Dragon.Ball.GT.TV.SPECIAL.Cent.Ans.Apres.MULTi.1080p.BluRay.REMUX.AVC-raton.mkv
Format                      : Matroska
Format version              : Version 4
File size                   : 9.92 GiB
Duration                    : 46 min 33 s
Overall bit rate mode       : Variable
Overall bit rate            : 30.5 Mb/s
Encoded date                : UTC 2019-08-04 05:32:02
Writing application         : mkvmerge v35.0.0 ('All The Love In The World') 64-bit
Writing library             : libebml v1.3.9 + libmatroska v1.5.2
Attachments                 : trebucbd.ttf / trebucbi.ttf / arial.ttf / arialbd.ttf / ADOBEHEITI-KAMI.TTF / BlambotCasual.ttf / CAC Moose.ttf / LT_0.ttf / Puritan-BoldItalic.otf / SourceSansPro-Black.ttf

Video
ID                          : 1
Format                      : AVC
Format/Info                 : Advanced Video Codec
Format profile              : High@L4.1
Format settings             : CABAC / 4 Ref Frames
Format settings, CABAC      : Yes
Format settings, Reference  : 4 frames
Codec ID                    : V_MPEG4/ISO/AVC
Duration                    : 46 min 33 s
Bit rate mode               : Variable
Bit rate                    : 28.0 Mb/s
Maximum bit rate            : 35.0 Mb/s
Width                       : 1 920 pixels
Height                      : 1 080 pixels
Display aspect ratio        : 16:9
Frame rate mode             : Constant
Frame rate                  : 23.976 (24000/1001) FPS
Standard                    : NTSC
Color space                 : YUV
Chroma subsampling          : 4:2:0
Bit depth                   : 8 bits
Scan type                   : Progressive
Bits/(Pixel*Frame)          : 0.563
Stream size                 : 9.10 GiB (92%)
Default                     : Yes
Forced                      : No
Color range                 : Limited
Color primaries             : BT.709
Transfer characteristics    : BT.709
Matrix coefficients         : BT.709

Audio #1
ID                          : 2
Format                      : AAC LC
Format/Info                 : Advanced Audio Codec Low Complexity
Codec ID                    : A_AAC-2
Duration                    : 46 min 32 s
Bit rate                    : 192 kb/s
Channel(s)                  : 2 channels
Channel layout              : L R
Sampling rate               : 48.0 kHz
Frame rate                  : 46.875 FPS (1024 SPF)
Compression mode            : Lossy
Stream size                 : 63.0 MiB (1%)
Title                       : Français (Mangas 2018)
Language                    : French
Default                     : Yes
Forced                      : No

Audio #2
ID                          : 3
Format                      : PCM
Format settings             : Little / Signed
Codec ID                    : A_PCM/INT/LIT
Duration                    : 46 min 33 s
Bit rate mode               : Constant
Bit rate                    : 2 304 kb/s
Channel(s)                  : 2 channels
Sampling rate               : 48.0 kHz
Frame rate                  : 200.000 FPS (240 SPF)
Bit depth                   : 24 bits
Stream size                 : 767 MiB (8%)
Language                    : Japanese
Default                     : No
Forced                      : No

Text #1
ID                          : 4
Format                      : ASS
Codec ID                    : S_TEXT/ASS
Codec ID/Info               : Advanced Sub Station Alpha
Duration                    : 46 min 16 s
Bit rate                    : 10 b/s
Count of elements           : 41
Compression mode            : Lossless
Stream size                 : 3.42 KiB (0%)
Title                       : Sous-titres pour l'audio VF
Language                    : French
Default                     : Yes
Forced                      : No

Text #2
ID                          : 5
Format                      : ASS
Codec ID                    : S_TEXT/ASS
Codec ID/Info               : Advanced Sub Station Alpha
Duration                    : 46 min 16 s
Bit rate                    : 76 b/s
Count of elements           : 428
Compression mode            : Lossless
Stream size                 : 26.0 KiB (0%)
Title                       : Français pour la VO
Language                    : French
Default                     : No
Forced                      : No

Menu
00:00:00.000                : en:Preview
00:00:30.864                : en:Opening Theme
00:02:24.895                : en:Part A
00:13:05.493                : en:Part B
00:23:59.063                : en:Part C
00:33:56.576                : en:Part D
00:44:45.349                : en:Ending Theme