Big Mouth 720p/1080p MULTi


Délices et horreurs de la puberté chahutent un groupe d’ados dans cette comédie décapante créée par deux copains de longue date, Nick Kroll et Andrew Goldberg.

Big.Mouth.S01.MULTi.1080p.NF.WEB-DL.x264-NEO

Big.Mouth.S02.MULTi.1080p.NF.WEB-DL.x264-NEO

Big.Mouth.S03E00.My.Furry.Valentine.MULTi.1080p.WEB.x264-CARAPiLS.mkv

Big Mouth.S03.TRUEFRENCH.1080p.WEB-DL.x264-FTMVHD

mot de passe : mouth
             ▒                      ▓▓░        ░░░░░░░░░░░░░░░░░▒                                   
            ▓██                    ▒██▒       ███████████████████▒      ▓██████████▓░               
            ████░                  ░██▒      ░███████████████████▒    ▓████████████████▓            
            ██████                 ░██▒      █████                  ▓███████████▓▓████████          
           ░███████░               ░██▒      █████                ░██████████▓▓▓  ░▒███████▒        
           ██████████              ░██▒      █████               ▒████████  ▒▒▓▒▓█░ ░ ░█████▓       
           ███████████▒            ░██▒     ░█████              ░█████▓█▓ ▒ ▒░     █  ███████▒      
           █████████████           ░██▒     ░█████              ██████ ▓ ▓▓         ░█████████      
          ▓██████▒▒██████░         ░██▒     ██████▓▓▓▓▓▓▓░     ░█████ ██▓            █▒  ▓████▒     
          ███████   ▓██████        ░██▒     █████████████▓     ▓████  ▒░              ░  ░████▓     
          ██████      ██████░      ░██▒     ██████             ▓████░ █              ░█ ██████▓     
         ▒█████▒        ██████     ░██▒     ██████             ▒█████ ▒              ▒ ░██████▓     
         ██████          ░█████░    ██▒     ██████              █████  ███▓            ▒██████      
         █████             ▒█████   ██▒     ██████              ▒█████▓█████▓       ▒█▓██████▓      
        ▒████░               ▓████  ██▒     ██████               ▓████████▓▒  ▒   ░▒▓▓███████       
        █████                  ███████▒     ██████                ▒█████████ ▒▒▒  ▒▓███████▓        
        ████                     █████▒     ██████                  ████████░█████████████          
        ███░                      ░███▒     ██████                    ▓█████████████████            
       ████                         ▒█▓     █████████████████████▒       ▒██████████▓               
       ▒░▒                                  ▒░▓▓█▓▒▓█▒█▒░█▓▓▒█▒░▒                                   
                                                      ░  ▓                                          
                                                      ░      ▒                                      
                                                 ░           ░                                      
                                                                                                    
                                                                                                    
General
Unique ID                                : 250313317068674764161343826131723475368 (0xBC50975E4446A111A9E0DF46FB43D9A8)
Complete name                            : Big.Mouth.S01E10.FINAL.MULTi.1080p.NF.WEB-DL.x264-NEO.mkv
Format                                   : Matroska
Format version                           : Version 4 / Version 2
File size                                : 1.27 GiB
Duration                                 : 27 min 16 s
Overall bit rate mode                    : Variable
Overall bit rate                         : 6 645 kb/s
Movie name                               : Big Mouth S01E10
Encoded date                             : UTC 2018-10-05 12:19:17
Writing application                      : mkvmerge v19.0.0 ('Brave Captain') 64-bit
Writing library                          : libebml v1.3.5 + libmatroska v1.4.8

Video
ID                                       : 1
Format                                   : AVC
Format/Info                              : Advanced Video Codec
Format profile                           : Main@L4
Format settings                          : CABAC / 3 Ref Frames
Format settings, CABAC                   : Yes
Format settings, ReFrames                : 3 frames
Codec ID                                 : V_MPEG4/ISO/AVC
Duration                                 : 27 min 16 s
Bit rate mode                            : Variable
Bit rate                                 : 5 360 kb/s
Maximum bit rate                         : 8 040 kb/s
Width                                    : 1 920 pixels
Height                                   : 1 080 pixels
Display aspect ratio                     : 16:9
Frame rate mode                          : Constant
Frame rate                               : 23.976 (24000/1001) FPS
Color space                              : YUV
Chroma subsampling                       : 4:2:0
Bit depth                                : 8 bits
Scan type                                : Progressive
Bits/(Pixel*Frame)                       : 0.108
Stream size                              : 1 021 MiB (79%)
Writing library                          : x264 core 118
Encoding settings                        : cabac=1 / ref=3 / deblock=1:0:0 / analyse=0x1:0x111 / me=umh / subme=10 / psy=1 / psy_rd=1.00:0.00 / mixed_ref=1 / me_range=24 / chroma_me=1 / trellis=2 / 8x8dct=0 / cqm=0 / deadzone=21,11 / fast_pskip=1 / chroma_qp_offset=-2 / threads=8 / sliced_threads=0 / nr=0 / decimate=1 / interlaced=0 / bluray_compat=0 / constrained_intra=0 / bframes=2 / b_pyramid=0 / b_adapt=2 / b_bias=0 / direct=3 / weightb=1 / open_gop=0 / weightp=2 / keyint=48 / keyint_min=25 / scenecut=0 / intra_refresh=0 / rc_lookahead=0 / rc=2pass / mbtree=1 / bitrate=5360 / ratetol=1.0 / qcomp=0.50 / qpmin=6 / qpmax=51 / qpstep=4 / cplxblur=20.0 / qblur=0.5 / vbv_maxrate=8040 / vbv_bufsize=10720 / nal_hrd=vbr / ip_ratio=1.40 / aq=1:1.00
Default                                  : Yes
Forced                                   : No

Audio #1
ID                                       : 2
Format                                   : E-AC-3
Format/Info                              : Enhanced Audio Coding 3
Codec ID                                 : A_EAC3
Duration                                 : 27 min 16 s
Bit rate mode                            : Constant
Bit rate                                 : 640 kb/s
Channel(s)                               : 6 channels
Channel positions                        : Front: L C R, Side: L R, LFE
Sampling rate                            : 48.0 kHz
Frame rate                               : 187.500 FPS (256 SPF)
Compression mode                         : Lossy
Stream size                              : 125 MiB (10%)
Title                                    : French EAC3 5.1 @640.0kbps
Language                                 : French
Service kind                             : Complete Main
Default                                  : Yes
Forced                                   : No

Audio #2
ID                                       : 3
Format                                   : E-AC-3
Format/Info                              : Enhanced Audio Coding 3
Codec ID                                 : A_EAC3
Duration                                 : 27 min 16 s
Bit rate mode                            : Constant
Bit rate                                 : 128 kb/s
Channel(s)                               : 2 channels
Channel positions                        : Front: L R
Sampling rate                            : 48.0 kHz
Frame rate                               : 187.500 FPS (256 SPF)
Compression mode                         : Lossy
Stream size                              : 25.0 MiB (2%)
Title                                    : French EAC3 2.0 @128.0kbps
Language                                 : French
Service kind                             : Complete Main
Default                                  : No
Forced                                   : No

Audio #3
ID                                       : 4
Format                                   : E-AC-3
Format/Info                              : Enhanced Audio Coding 3
Codec ID                                 : A_EAC3
Duration                                 : 27 min 16 s
Bit rate mode                            : Constant
Bit rate                                 : 640 kb/s
Channel(s)                               : 6 channels
Channel positions                        : Front: L C R, Side: L R, LFE
Sampling rate                            : 48.0 kHz
Frame rate                               : 187.500 FPS (256 SPF)
Compression mode                         : Lossy
Stream size                              : 125 MiB (10%)
Title                                    : English EAC3 5.1 @640.0kbps
Language                                 : English
Service kind                             : Complete Main
Default                                  : No
Forced                                   : No

Text #1
ID                                       : 5
Format                                   : UTF-8
Codec ID                                 : S_TEXT/UTF8
Codec ID/Info                            : UTF-8 Plain Text
Duration                                 : 26 min 30 s
Bit rate                                 : 115 b/s
Count of elements                        : 553
Stream size                              : 22.4 KiB (0%)
Title                                    : French UTF-8 Full
Language                                 : French
Default                                  : No
Forced                                   : No

Text #2
ID                                       : 6
Format                                   : UTF-8
Codec ID                                 : S_TEXT/UTF8
Codec ID/Info                            : UTF-8 Plain Text
Duration                                 : 26 min 30 s
Bit rate                                 : 1 b/s
Count of elements                        : 14
Stream size                              : 336 Bytes (0%)
Title                                    : Forces
Language                                 : French
Default                                  : Yes
Forced                                   : Yes



Release: Big.Mouth.S01E10.FINAL.MULTi.1080p.NF.WEB-DL.x264-NEO
Source : NETFLIX 
		 
Imdb     : https://www.imdb.com/title/tt6524350/
Allociné : http://www.allocine.fr/series/ficheserie_gen_cserie=20646.html

REMERCIEMENTS : BlackFlag , CherryCoke , WEEDS
             ▒                      ▓▓░        ░░░░░░░░░░░░░░░░░▒                                   
            ▓██                    ▒██▒       ███████████████████▒      ▓██████████▓░               
            ████░                  ░██▒      ░███████████████████▒    ▓████████████████▓            
            ██████                 ░██▒      █████                  ▓███████████▓▓████████          
           ░███████░               ░██▒      █████                ░██████████▓▓▓  ░▒███████▒        
           ██████████              ░██▒      █████               ▒████████  ▒▒▓▒▓█░ ░ ░█████▓       
           ███████████▒            ░██▒     ░█████              ░█████▓█▓ ▒ ▒░     █  ███████▒      
           █████████████           ░██▒     ░█████              ██████ ▓ ▓▓         ░█████████      
          ▓██████▒▒██████░         ░██▒     ██████▓▓▓▓▓▓▓░     ░█████ ██▓            █▒  ▓████▒     
          ███████   ▓██████        ░██▒     █████████████▓     ▓████  ▒░              ░  ░████▓     
          ██████      ██████░      ░██▒     ██████             ▓████░ █              ░█ ██████▓     
         ▒█████▒        ██████     ░██▒     ██████             ▒█████ ▒              ▒ ░██████▓     
         ██████          ░█████░    ██▒     ██████              █████  ███▓            ▒██████      
         █████             ▒█████   ██▒     ██████              ▒█████▓█████▓       ▒█▓██████▓      
        ▒████░               ▓████  ██▒     ██████               ▓████████▓▒  ▒   ░▒▓▓███████       
        █████                  ███████▒     ██████                ▒█████████ ▒▒▒  ▒▓███████▓        
        ████                     █████▒     ██████                  ████████░█████████████          
        ███░                      ░███▒     ██████                    ▓█████████████████            
       ████                         ▒█▓     █████████████████████▒       ▒██████████▓               
       ▒░▒                                  ▒░▓▓█▓▒▓█▒█▒░█▓▓▒█▒░▒                                   
                                                      ░  ▓                                          
                                                      ░      ▒                                      
                                                 ░           ░                                      
                                                                                                    
                                                                                                    
General
Unique ID                                : 338910520141055270917224182555375511846 (0xFEF7CABB517F528009B1BA276EF32926)
Complete name                            : Big.Mouth.S02E10.FINAL.MULTi.1080p.NF.WEB-DL.x264-NEO.mkv
Format                                   : Matroska
Format version                           : Version 4 / Version 2
File size                                : 961 MiB
Duration                                 : 27 min 58 s
Overall bit rate mode                    : Variable
Overall bit rate                         : 4 805 kb/s
Movie name                               : Big Mouth S02E10
Encoded date                             : UTC 2018-10-05 18:07:00
Writing application                      : mkvmerge v19.0.0 ('Brave Captain') 64-bit
Writing library                          : libebml v1.3.5 + libmatroska v1.4.8

Video
ID                                       : 1
Format                                   : AVC
Format/Info                              : Advanced Video Codec
Format profile                           : Main@L4
Format settings                          : CABAC / 3 Ref Frames
Format settings, CABAC                   : Yes
Format settings, ReFrames                : 3 frames
Codec ID                                 : V_MPEG4/ISO/AVC
Duration                                 : 27 min 58 s
Bit rate mode                            : Variable
Bit rate                                 : 3 650 kb/s
Maximum bit rate                         : 5 475 kb/s
Width                                    : 1 920 pixels
Height                                   : 1 080 pixels
Display aspect ratio                     : 16:9
Frame rate mode                          : Constant
Frame rate                               : 23.976 (24000/1001) FPS
Color space                              : YUV
Chroma subsampling                       : 4:2:0
Bit depth                                : 8 bits
Scan type                                : Progressive
Bits/(Pixel*Frame)                       : 0.073
Stream size                              : 717 MiB (75%)
Writing library                          : x264 core 148 r2715 7e75228
Encoding settings                        : cabac=1 / ref=3 / deblock=1:0:0 / analyse=0x1:0x111 / me=umh / subme=10 / psy=1 / psy_rd=1.00:0.00 / mixed_ref=1 / me_range=24 / chroma_me=1 / trellis=2 / 8x8dct=0 / cqm=0 / deadzone=21,11 / fast_pskip=1 / chroma_qp_offset=-2 / threads=8 / lookahead_threads=1 / sliced_threads=0 / nr=0 / decimate=1 / interlaced=0 / bluray_compat=0 / stitchable=1 / constrained_intra=0 / bframes=2 / b_pyramid=0 / b_adapt=2 / b_bias=0 / direct=3 / weightb=1 / open_gop=0 / weightp=2 / keyint=48 / keyint_min=25 / scenecut=0 / intra_refresh=0 / rc_lookahead=48 / rc=2pass / mbtree=1 / bitrate=3650 / ratetol=1.0 / qcomp=0.50 / qpmin=6 / qpmax=51 / qpstep=4 / cplxblur=20.0 / qblur=0.5 / vbv_maxrate=5475 / vbv_bufsize=7300 / nal_hrd=vbr / filler=0 / ip_ratio=1.40 / aq=1:1.00
Default                                  : Yes
Forced                                   : No

Audio #1
ID                                       : 2
Format                                   : E-AC-3
Format/Info                              : Enhanced Audio Coding 3
Codec ID                                 : A_EAC3
Duration                                 : 27 min 58 s
Bit rate mode                            : Constant
Bit rate                                 : 640 kb/s
Channel(s)                               : 6 channels
Channel positions                        : Front: L C R, Side: L R, LFE
Sampling rate                            : 48.0 kHz
Frame rate                               : 187.500 FPS (256 SPF)
Compression mode                         : Lossy
Stream size                              : 128 MiB (13%)
Title                                    : French EAC3 5.1 @640.0kbps
Language                                 : French
Service kind                             : Complete Main
Default                                  : Yes
Forced                                   : No

Audio #2
ID                                       : 3
Format                                   : E-AC-3
Format/Info                              : Enhanced Audio Coding 3
Codec ID                                 : A_EAC3
Duration                                 : 27 min 58 s
Bit rate mode                            : Constant
Bit rate                                 : 128 kb/s
Channel(s)                               : 2 channels
Channel positions                        : Front: L R
Sampling rate                            : 48.0 kHz
Frame rate                               : 187.500 FPS (256 SPF)
Compression mode                         : Lossy
Stream size                              : 25.6 MiB (3%)
Title                                    : French EAC3 2.0 @128.0kbps
Language                                 : French
Service kind                             : Complete Main
Default                                  : No
Forced                                   : No

Audio #3
ID                                       : 4
Format                                   : E-AC-3
Format/Info                              : Enhanced Audio Coding 3
Codec ID                                 : A_EAC3
Duration                                 : 27 min 58 s
Bit rate mode                            : Constant
Bit rate                                 : 448 kb/s
Channel(s)                               : 6 channels
Channel positions                        : Front: L C R, Side: L R, LFE
Sampling rate                            : 48.0 kHz
Frame rate                               : 187.500 FPS (256 SPF)
Compression mode                         : Lossy
Stream size                              : 89.6 MiB (9%)
Title                                    : English EAC3 5.1 @448.0kbps
Language                                 : English
Service kind                             : Complete Main
Default                                  : No
Forced                                   : No

Text #1
ID                                       : 5
Format                                   : UTF-8
Codec ID                                 : S_TEXT/UTF8
Codec ID/Info                            : UTF-8 Plain Text
Duration                                 : 27 min 10 s
Bit rate                                 : 107 b/s
Count of elements                        : 718
Stream size                              : 21.3 KiB (0%)
Title                                    : French UTF-8 Full
Language                                 : French
Default                                  : No
Forced                                   : No

Text #2
ID                                       : 6
Format                                   : UTF-8
Codec ID                                 : S_TEXT/UTF8
Codec ID/Info                            : UTF-8 Plain Text
Duration                                 : 27 min 10 s
Bit rate                                 : 1 b/s
Count of elements                        : 9
Stream size                              : 268 Bytes (0%)
Title                                    : Forces
Language                                 : French
Default                                  : Yes
Forced                                   : Yes



Release: Big.Mouth.S02E10.FINAL.MULTi.1080p.NF.WEB-DL.x264-NEO
Source : NETFLIX 
		 
Imdb     : https://www.imdb.com/title/tt6524350/
Allociné : http://www.allocine.fr/series/ficheserie_gen_cserie=20646.html

REMERCIEMENTS : BlackFlag , CherryCoke , WEEDS
.________________________________( CARAPiLS )_____________________________.
|:| /\ | /\ | /\ | /\ | /\ | /\ | /\ | /\ | /\ | /\ | /\ | /\ | /\ | /\ |:|
|:|/  \|/  \|/  \|/  \|/  \|/  \|/  \|/  \|/  \|/  \|/  \|/  \|/  \|/  \|:|
|:|----|----|----|----|----|----|----|----|----|----|----|----|----|----|:|
|:| /\ | /\ | /\ | /\ | /\ | /\ | /\ | /\ | /\ | /\ | /\ | /\ | /\ | /\ |:|
|:|/  \|/  \|/  \|/  \|/  \|/  \|/  \|/  \|/  \|/  \|/  \|/  \|/  \|/  \|:|
|:|____|____|____|____|____|____|____|____|____|____|____|____|____|____|:|
|:| __             __ ._________  __  __    .    .        .____     __  |:|
|:| \/\      _____//\\||       \ /\/ //\\  _|\/\/|.  ____//    \_  /\/  |:|
|:| /__._____/   //  \||    _\ \\__\//  \\ |------/__|  |/  /\__(____\: |:|
|:|   // . _    // __ \|      __\__// __ \\|  _  /(__)  (_______  . \   |:|
|:|  // . //___// ____ \ ______    \ ____ \!  __//__ |  |_  \  / .  /\  |:|
|:| // . / ___./  \  /  \ \   \   __\\  /  \  \\ / /\|  | \\ \/ .  / /\ |:|
|:| \\  /__\  \    \/    \ \  _\  \ \\\/    \  \/ / /|  7  \\  .  / / /\|:|
|:| /\\________\___/______\ \ \\\  . \/______\__\/ / |______\\___/ / / /|:|
|:|/__\_________\_/_zNr|_____\ \_______\______\__\/dS!_______\\\/_/_/_/_|:|
|:|====================|______\ \________\==============================|:|
|:|                                                                     |:|
|:| -> Big Mouth S03E00                                                 |:|
|:|                                                                     |:|
|:|  Date   == 02/08/2019                                               |:|
|:|  Video  == 1920x1080 Untouched 3320kb/s                             |:|
|:|  Audio  == French 640kb/s 6ch EAC3, English 640kb/s 6ch EAC3        |:|
|:|  Subs   == French (Forced), French, English (CC), ...               |:|
|:|  Size   == 1.47 GiB                                                 |:|
|:|  Length == 46 min 7 s                                               |:|
|:|  Site   == https://www.netflix.com                                  |:|
|:|  Notes  == -                                                        |:|
|:|_____________________________________________________________________|:|
|:| /\ | /\ | /\ | /\ | /\ | /\ | /\ | /\ | /\ | /\ | /\ | /\ | /\ | /\ |:|
|:|/  \|/  \|/  \|/  \|/  \|/  \|/  \|/  \|/  \|/  \|/  \|/  \|/  \|/  \|:|
|:|----|----|----|----|----|----|----|----|----|----|----|----|----|----|:|
|:| /\ | /\ | /\ | /\ | /\ | /\ | /\ | /\ | /\ | /\ | /\ | /\ | /\ | /\ |:|
|:|/  \|/  \|/  \|/  \|/  \|/  \|/  \|/  \|/  \|/  \|/  \|/  \|/  \|/  \|:|
|:|____|____|____|____|____|____|____|____|____|____|____|____|____|____|:|
|:| /\ | /\ | /\ | /\ | /\ | /\ | /\ | /\ | /\ | /\ | /\ | /\ | /\ | /\ |:|
|:|/  \|/  \|/  \|/  \|/  \|/  \|/  \|/  \|/  \|/  \|/  \|/  \|/  \|/  \|:|
|:|----|----|----|----|----|----|----|----|----|----|----|----|----|----|:|
|.:____:____:____:____:____:_                 _:____:____:____:____:____:.|
!___________________________( DRINK EVERYDAY! )___________________________!
Unique ID                      : 37570206873391067555805883610432745352 (0x1C43C23674AB980BA68E17DC72D32F88)

Complete name                  : Big Mouth.S03E10.FINAL.TRUEFRENCH.1080p.WEB-DL.x264-FTMVHD.mkv

Format                         : Matroska

Format version                 : Version 4

File size                      : 801 MiB

Duration                       : 26 min 3 s

Overall bit rate               : 4 299 kb/s

Movie name                     : Big Mouth.S03E10.FINAL.TRUEFRENCH.1080p.WEB-DL.x264-FTMVHD

Encoded date                   : UTC 2019-11-12 18:17:43

Writing application            : mkvmerge v34.0.0 ('Sight and Seen') 64-bit

Writing library                : libebml v1.3.7 + libmatroska v1.5.0



Video

ID                             : 1

Format                         : AVC

Format/Info                    : Advanced Video Codec

Format profile                 : High@L4.1

Format settings                : CABAC / 4 Ref Frames

Format settings, CABAC         : Yes

Format settings, Reference fra : 4 frames

Codec ID                       : V_MPEG4/ISO/AVC

Duration                       : 26 min 3 s

Bit rate                       : 3 914 kb/s

Width                          : 1 920 pixels

Height                         : 1 080 pixels

Display aspect ratio           : 16:9

Frame rate mode                : Constant

Frame rate                     : 23.976 (24000/1001) FPS

Color space                    : YUV

Chroma subsampling             : 4:2:0

Bit depth                      : 8 bits

Scan type                      : Progressive

Stream size                    : 729 MiB (91%)

Title                          : 1080p WEB-DL FR (FTMVHD)

Writing library                : x264 core 152 r2851bm ba24899

Language                       : English

Default                        : Yes

Forced                         : No



Audio

ID                             : 2

Format                         : AC-3

Format/Info                    : Audio Coding 3

Commercial name                : Dolby Digital

Codec ID                       : A_AC3

Duration                       : 26 min 3 s

Bit rate mode                  : Constant

Bit rate                       : 384 kb/s

Channel(s)                     : 6 channels

Channel layout                 : L R C LFE Ls Rs

Sampling rate                  : 48.0 kHz

Frame rate                     : 31.250 FPS (1536 SPF)

Compression mode               : Lossy

Stream size                    : 71.6 MiB (9%)

Title                          : AC3 5.1 NETFLIX FR (FTMVHD)

Language                       : French

Service kind                   : Complete Main

Default                        : Yes

Forced                         : No



Text

ID                             : 3

Format                         : ASS

Codec ID                       : S_TEXT/ASS

Codec ID/Info                  : Advanced Sub Station Alpha

Duration                       : 21 min 9 s

Bit rate                       : 3 b/s

Count of elements              : 11

Compression mode               : Lossless

Stream size                    : 538 Bytes (0%)

Title                          : FTMV Te@m Since 2oo8 (FTMVHD)

Language                       : French

Default                        : Yes

Forced                         : Yes

Big.Mouth.S03.FRENCH.720p.WEB.x264-CiELOS

mot de passe : mouth
   ▄▄▄▄▄▄▄▄▄▄▄  ▄▄▄▄▄▄▄▄▄▄▄  ▄▄▄▄▄▄▄▄▄▄▄  ▄            ▄▄▄▄▄▄▄▄▄▄▄  ▄▄▄▄▄▄▄▄▄▄▄ 
  ▐░░░░░░░░░░░▌▐░░░░░░░░░░░▌▐░░░░░░░░░░░▌▐░▌          ▐░░░░░░░░░░░▌▐░░░░░░░░░░░▌
  ▐░█▀▀▀▀▀▀▀▀▀  ▀▀▀▀█░█▀▀▀▀ ▐░█▀▀▀▀▀▀▀▀▀ ▐░▌          ▐░█▀▀▀▀▀▀▀█░▌▐░█▀▀▀▀▀▀▀▀▀ 
  ▐░▌               ▐░▌     ▐░▌          ▐░▌          ▐░▌       ▐░▌▐░▌          
  ▐░▌               ▐░▌     ▐░█▄▄▄▄▄▄▄▄▄ ▐░▌          ▐░▌       ▐░▌▐░█▄▄▄▄▄▄▄▄▄ 
  ▐░▌               ▐░▌     ▐░░░░░░░░░░░▌▐░▌          ▐░▌       ▐░▌▐░░░░░░░░░░░▌
  ▐░▌               ▐░▌     ▐░█▀▀▀▀▀▀▀▀▀ ▐░▌          ▐░▌       ▐░▌ ▀▀▀▀▀▀▀▀▀█░▌
  ▐░█▄▄▄▄▄▄▄▄▄  ▄▄▄▄█░█▄▄▄▄ ▐░█▄▄▄▄▄▄▄▄▄ ▐░█▄▄▄▄▄▄▄▄▄ ▐░█▄▄▄▄▄▄▄█░▌ ▄▄▄▄▄▄▄▄▄█░▌
  ▐░░░░░░░░░░░▌▐░░░░░░░░░░░▌▐░░░░░░░░░░░▌▐░░░░░░░░░░░▌▐░░░░░░░░░░░▌▐░░░░░░░░░░░▌
   ▀▀▀▀▀▀▀▀▀▀▀  ▀▀▀▀▀▀▀▀▀▀▀  ▀▀▀▀▀▀▀▀▀▀▀  ▀▀▀▀▀▀▀▀▀▀▀  ▀▀▀▀▀▀▀▀▀▀▀  ▀▀▀▀▀▀▀▀▀▀▀ 
 

   Release : Big.Mouth.S03E10.FiNAL.FRENCH.720p.WEB.x264-CiELOS 
 
   Date : 2019-10-04  
   Size : 606 MiB 
 
   Duration   : 27 min 28 s 
   Resolution : 1280x720 
   Framerate  : 23.976 fps 
 
   Video : x264 - Untouched - 2 490 kb/s 
   Audio : E-AC-3 - 6ch - 640 kb/s 
   Subs  : French (Forced) / French / English 
 
   iMDB : https://www.imdb.com/title/tt6524350/