Tom Sawyer 720p/1080p FRENCH


Cette série met en scène six mois d’aventures d’un jeune orphelin, Tom Sawyer, et de son meilleur ami, Huckleberry Finn, dans la petite ville de Saint-Petersburg, à 80 km de Saint-Louis, sur les rives du Mississippi dans le Missouri, au milieu du XIXe siècle.
Tous deux seront confrontés à de nombreuses aventures dont la rencontre avec Joe l’indien.

Tom.Sawyer.1980.COMPLETE.FRENCH.1080p.BluRay.DTS-HDMA.x264-FoX

mot de passe : tom
Unique ID                   : 220973305428407270032936868357050462313 (0xA63DE91BFFB9337CA75DE86B678BF069)
Complete name               : BD5.49. Tout est bien.mkv
Format                      : Matroska
Format version              : Version 4
File size                   : 1.31 GiB
Duration                    : 24 min 46 s
Overall bit rate mode       : Variable
Overall bit rate            : 7 581 kb/s
Encoded date                : UTC 2017-09-02 10:02:51
Writing application         : mkvmerge v15.0.0 ('Duel with the Devil') 64-bit
Writing library             : libebml v1.3.5 + libmatroska v1.4.5

Video
ID                          : 1
Format                      : AVC
Format/Info                 : Advanced Video Codec
Format profile              : High@L4.1
Format settings             : CABAC / 4 Ref Frames
Format settings, CABAC      : Yes
Format settings, Reference  : 4 frames
Codec ID                    : V_MPEG4/ISO/AVC
Duration                    : 24 min 46 s
Bit rate                    : 6 000 kb/s
Width                       : 1 920 pixels
Height                      : 1 080 pixels
Display aspect ratio        : 16:9
Frame rate mode             : Constant
Frame rate                  : 23.976 FPS
Color space                 : YUV
Chroma subsampling          : 4:2:0
Bit depth                   : 8 bits
Scan type                   : Progressive
Bits/(Pixel*Frame)          : 0.121
Stream size                 : 1.04 GiB (79%)
Title                       : 49. Tout est bien
Writing library             : x264 core 152 r2851 ba24899
Encoding settings           : cabac=1 / ref=4 / deblock=1:2:2 / analyse=0x3:0x133 / me=umh / subme=11 / psy=1 / psy_rd=0.99:0.05 / mixed_ref=1 / me_range=64 / chroma_me=1 / trellis=2 / 8x8dct=1 / cqm=0 / deadzone=6,6 / fast_pskip=0 / chroma_qp_offset=-3 / threads=6 / lookahead_threads=1 / sliced_threads=0 / nr=0 / decimate=0 / interlaced=0 / bluray_compat=0 / constrained_intra=0 / bframes=5 / b_pyramid=2 / b_adapt=2 / b_bias=0 / direct=3 / weightb=1 / open_gop=1 / weightp=2 / keyint=250 / keyint_min=23 / scenecut=40 / intra_refresh=0 / rc_lookahead=250 / rc=2pass / mbtree=1 / bitrate=6000 / ratetol=1.0 / qcomp=0.60 / qpmin=0 / qpmax=69 / qpstep=4 / cplxblur=20.0 / qblur=0.5 / vbv_maxrate=50000 / vbv_bufsize=50000 / nal_hrd=none / filler=0 / ip_ratio=1.40 / aq=2:1.00
Language                    : English
Default                     : Yes
Forced                      : No
Color range                 : Limited
Color primaries             : BT.709
Transfer characteristics    : BT.709
Matrix coefficients         : BT.709

Audio
ID                          : 2
Format                      : DTS XLL
Format/Info                 : Digital Theater Systems
Commercial name             : DTS-HD Master Audio
Codec ID                    : A_DTS
Duration                    : 24 min 45 s
Bit rate mode               : Variable
Bit rate                    : 1 576 kb/s
Channel(s)                  : 2 channels
Sampling rate               : 48.0 kHz
Frame rate                  : 93.750 FPS (512 SPF)
Bit depth                   : 24 bits
Compression mode            : Lossless
Stream size                 : 279 MiB (21%)
Title                       : VFF DTS-HD Master Audio 2.0 @1575 kbps
Language                    : French
Default                     : Yes
Forced                      : No

Menu #1
00:00:00.000                : en:00:00:00.000
00:01:13.991                : en:00:01:13.991
00:11:54.672                : en:00:11:54.672
00:23:41.795                : en:00:23:41.795

Menu #2
00:00:00.000                : en:00:00:00.000
00:01:13.991                : en:00:01:13.991
00:11:54.672                : en:00:11:54.672
00:23:41.795                : en:00:23:41.795

Tom.Sawyer.FRENCH.720p.BluRay.x264-KAZETV

mot de passe : tom
KAZETV brings to you :

Tom.Sawyer.E01.iNTERNAL.READNFO.FRENCH.720p.BluRay.x264-KAZETV

---- Video Info ----

* codec      : X264
* pass       : 2 pass
* framerate  : 23.976 fps
* resolution : 1280x720

---- Audio Info ----

* track     : French
* subtitle  : N/A

* codec     : DTS 2.0
* bitrate   : 1509 Kbps
* frequence : 48.0 KHZ

---- Packing Info ----

* runtime   : 24min 50s
* size      : 743 Mio
* pack      : 16x50mB

* link      : http://www.animeka.com/animes/detail/tom-sawyer.html

* note      : Greetz a la foret qui dort, la pierre brillante, au poisson cru et au soleil levant.

* readnfo   : Pour ne pas deformer l'image, j'ai laisse les bandes noires presentes sur les cotes.