Saint Seiya 1080p MULTi


On raconte que quand les forces du mal veulent dominer la planète, Athéna et ses vaillants guerriers se dresseront contre l’envahisseur.
Ces guerriers s’appellent les Saints (Chevalier en VF), de leurs poings, ils pouvaient pourfendre le ciel et de leurs pieds, entrouvrir la terre.
Aujourd’hui encore, la planète est en proie des forces maléfiques. Pour se préparer a lutter, la déesse Athéna se réincarne sous les traits de Saori Kido accompagné des chevaliers de Bronze recueillis par son défunt grand père : Seiya de Pégase de Grèce, Shiryu du Dragon des cinq Pics en Chine, Hyoga du Cygne de Sibérie, Shun d’Andromède de l’Ile d’Andromède et Ikki du Phénix de l’ile de la Reine Morte et frère aîné de Shun.

Saint.Seiya.COMPLETE.MULTi.1080p.BluRay.x264-TSuNaMi

Saint Seiya – Arc Hadès – Ep.115-145 VF BluRay 1080p x264-Chris44

Saint.Seiya.Soul.Of.Gold.REMASTERED.MULTI.1080p.BluRay.x264-Dryl

Saint.Seiya.The.Lost.Canvas.S01.MULTi.Bluray.720p-x264.HP.AC3-2.0-{jpn-Fr}.{Subs.Fr}.Chaps-JMS

Saint.Seiya.The.Lost.Canvas.S02.MULTi.720p.Bluray.x264-KHAYA

Saint.Seiya.Omega.S01.MULTi.1080p.BluRay.x264-KAZETV

Saint Seiya Omega S02 VF (V2) WebDl 1080p x264 – Chris44

Saint.Seiya.Saintia.Sho.MULTi.1080p.BluRay.x264-SHiNiGAMi

mot de passe : saint

Saint.Seiya.Films.1-5.MULTi.1080p.BluRay.x264-RiPiT

mot de passe : saint
Source..: REMUX NoTaG (Merci)
TMDb....: https://www.themoviedb.org/movie/50253

Contact.: ripitcontact@protonmail.com

-----------------------------------------------------------------------------------------------------------------------
General
Complete name                            : Saint.Seiya.Film.5.Chapitre.du.Monde.Celeste.Ouverture.2004.MULTi.1080p.BluRay.x264-RiPiT.mkv
Format                                   : Matroska
Format version                           : Version 4
File size                                : 6.56 GiB
Duration                                 : 1 h 23 min
Overall bit rate                         : 11.2 Mb/s
Movie name                               : Saint.Seiya.Film.5.Chapitre.du.Monde.Celeste.Ouverture.2004.MULTi.1080p.BluRay.x264-RiPiT
Encoded date                             : UTC 2020-07-25 23:09:17
Writing application                      : mkvmerge v38.0.0 ('The Silent Type') 64-bit
Writing library                          : libebml v1.3.9 + libmatroska v1.5.2

Video
ID                                       : 1
Format                                   : AVC
Format/Info                              : Advanced Video Codec
Format profile                           : High@L4.1
Format settings                          : CABAC / 4 Ref Frames
Format settings, CABAC                   : Yes
Format settings, Reference frames        : 4 frames
Codec ID                                 : V_MPEG4/ISO/AVC
Duration                                 : 1 h 23 min
Bit rate                                 : 9 387 kb/s
Width                                    : 1 920 pixels
Height                                   : 1 080 pixels
Display aspect ratio                     : 16:9
Frame rate mode                          : Constant
Frame rate                               : 23.976 (24000/1001) FPS
Color space                              : YUV
Chroma subsampling                       : 4:2:0
Bit depth                                : 8 bits
Scan type                                : Progressive
Bits/(Pixel*Frame)                       : 0.189
Stream size                              : 5.47 GiB (83%)
Writing library                          : x264 core 159
Encoding settings                        : cabac=1 / ref=4 / deblock=1:0:0 / analyse=0x3:0x113 / me=umh / subme=8 / psy=1 / psy_rd=1.00:0.00 / mixed_ref=1 / me_range=16 / chroma_me=1 / trellis=1 / 8x8dct=1 / cqm=0 / deadzone=21,11 / fast_pskip=1 / chroma_qp_offset=-2 / threads=24 / lookahead_threads=4 / sliced_threads=0 / nr=0 / decimate=1 / interlaced=0 / bluray_compat=0 / constrained_intra=0 / bframes=3 / b_pyramid=2 / b_adapt=1 / b_bias=0 / direct=3 / weightb=1 / open_gop=0 / weightp=2 / keyint=240 / keyint_min=23 / scenecut=40 / intra_refresh=0 / rc_lookahead=50 / rc=2pass / mbtree=1 / bitrate=9387 / ratetol=1.0 / qcomp=0.60 / qpmin=0 / qpmax=69 / qpstep=4 / cplxblur=20.0 / qblur=0.5 / ip_ratio=1.40 / aq=1:1.00
Default                                  : Yes
Forced                                   : No

Audio #1
ID                                       : 2
Format                                   : DTS
Format/Info                              : Digital Theater Systems
Codec ID                                 : A_DTS
Duration                                 : 1 h 23 min
Bit rate mode                            : Constant
Bit rate                                 : 1 413 kb/s
Channel(s)                               : 6 channels
Channel layout                           : C L R Ls Rs LFE
Sampling rate                            : 48.0 kHz
Frame rate                               : 93.750 FPS (512 SPF)
Bit depth                                : 16 bits
Compression mode                         : Lossy
Delay relative to video                  : 500 ms
Stream size                              : 844 MiB (13%)
Language                                 : French
Default                                  : Yes
Forced                                   : No

Audio #2
ID                                       : 3
Format                                   : AC-3
Format/Info                              : Audio Coding 3
Commercial name                          : Dolby Digital
Codec ID                                 : A_AC3
Duration                                 : 1 h 23 min
Bit rate mode                            : Constant
Bit rate                                 : 448 kb/s
Channel(s)                               : 2 channels
Channel layout                           : L R
Sampling rate                            : 48.0 kHz
Frame rate                               : 31.250 FPS (1536 SPF)
Compression mode                         : Lossy
Stream size                              : 268 MiB (4%)
Language                                 : Japanese
Service kind                             : Complete Main
Default                                  : No
Forced                                   : No

Text #1
ID                                       : 4
Format                                   : UTF-8
Codec ID                                 : S_TEXT/UTF8
Codec ID/Info                            : UTF-8 Plain Text
Duration                                 : 1 h 19 min
Bit rate                                 : 0 b/s
Count of elements                        : 4
Stream size                              : 165 Bytes (0%)
Title                                    : Forced
Language                                 : French
Default                                  : Yes
Forced                                   : Yes

Text #2
ID                                       : 5
Format                                   : UTF-8
Codec ID                                 : S_TEXT/UTF8
Codec ID/Info                            : UTF-8 Plain Text
Duration                                 : 1 h 20 min
Bit rate                                 : 47 b/s
Count of elements                        : 668
Stream size                              : 27.7 KiB (0%)
Title                                    : Full
Language                                 : French
Default                                  : No
Forced                                   : No

Saint.Seiya.Films.1-5.FRENCH.720p.BluRay.x264-RiPiT

mot de passe : saint
Source..: REMUX NoTaG (Merci)
TMDb....: https://www.themoviedb.org/movie/50253

Contact.: ripitcontact@protonmail.com

-----------------------------------------------------------------------------------------------------------------------
General
Complete name                            : Saint.Seiya.Film.5.Chapitre.du.Monde.Celeste.Ouverture.2004.FRENCH.720p.BluRay.x264-RiPiT.mkv
Format                                   : Matroska
Format version                           : Version 4
File size                                : 3.28 GiB
Duration                                 : 1 h 23 min
Overall bit rate                         : 5 626 kb/s
Movie name                               : Saint.Seiya.Film.5.Chapitre.du.Monde.Celeste.Ouverture.2004.FRENCH.720p.BluRay.x264-RiPiT
Encoded date                             : UTC 2020-07-25 23:09:39
Writing application                      : mkvmerge v38.0.0 ('The Silent Type') 64-bit
Writing library                          : libebml v1.3.9 + libmatroska v1.5.2

Video
ID                                       : 1
Format                                   : AVC
Format/Info                              : Advanced Video Codec
Format profile                           : High@L4.1
Format settings                          : CABAC / 5 Ref Frames
Format settings, CABAC                   : Yes
Format settings, Reference frames        : 5 frames
Codec ID                                 : V_MPEG4/ISO/AVC
Duration                                 : 1 h 23 min
Bit rate                                 : 4 211 kb/s
Width                                    : 1 280 pixels
Height                                   : 720 pixels
Display aspect ratio                     : 16:9
Frame rate mode                          : Constant
Frame rate                               : 23.976 (24000/1001) FPS
Color space                              : YUV
Chroma subsampling                       : 4:2:0
Bit depth                                : 8 bits
Scan type                                : Progressive
Bits/(Pixel*Frame)                       : 0.191
Stream size                              : 2.46 GiB (75%)
Writing library                          : x264 core 159
Encoding settings                        : cabac=1 / ref=5 / deblock=1:0:0 / analyse=0x3:0x113 / me=umh / subme=8 / psy=1 / psy_rd=1.00:0.00 / mixed_ref=1 / me_range=16 / chroma_me=1 / trellis=1 / 8x8dct=1 / cqm=0 / deadzone=21,11 / fast_pskip=1 / chroma_qp_offset=-2 / threads=22 / lookahead_threads=3 / sliced_threads=0 / nr=0 / decimate=1 / interlaced=0 / bluray_compat=0 / constrained_intra=0 / bframes=3 / b_pyramid=2 / b_adapt=1 / b_bias=0 / direct=3 / weightb=1 / open_gop=0 / weightp=2 / keyint=240 / keyint_min=23 / scenecut=40 / intra_refresh=0 / rc_lookahead=50 / rc=2pass / mbtree=1 / bitrate=4211 / ratetol=1.0 / qcomp=0.60 / qpmin=0 / qpmax=69 / qpstep=4 / cplxblur=20.0 / qblur=0.5 / ip_ratio=1.40 / aq=1:1.00
Default                                  : Yes
Forced                                   : No

Audio
ID                                       : 2
Format                                   : DTS
Format/Info                              : Digital Theater Systems
Codec ID                                 : A_DTS
Duration                                 : 1 h 23 min
Bit rate mode                            : Constant
Bit rate                                 : 1 413 kb/s
Channel(s)                               : 6 channels
Channel layout                           : C L R Ls Rs LFE
Sampling rate                            : 48.0 kHz
Frame rate                               : 93.750 FPS (512 SPF)
Bit depth                                : 16 bits
Compression mode                         : Lossy
Delay relative to video                  : 500 ms
Stream size                              : 844 MiB (25%)
Language                                 : French
Default                                  : Yes
Forced                                   : No

Text
ID                                       : 3
Format                                   : UTF-8
Codec ID                                 : S_TEXT/UTF8
Codec ID/Info                            : UTF-8 Plain Text
Duration                                 : 1 h 19 min
Bit rate                                 : 0 b/s
Count of elements                        : 4
Stream size                              : 165 Bytes (0%)
Title                                    : Forced
Language                                 : French
Default                                  : Yes
Forced                                   : Yes