Star Wars Resistance 1080p VF


Poe Dameron, un commandant de la Résistance, envoie le jeune pilote Kazuda Xiono espionner le Premier Ordre. Afin de remplir sa mission, Kazuda se rend sur la station spatiale Colossus. Celle-ci est utilisée par de nombreux vaisseaux pour le ravitaillement et les réparations, mais également pour des courses dangereuses. Alors qu’il montre ses compétences de vol à son arrivée, Kazuda se retrouve entraîné dans l’une des courses.

Star Wars Resistance.S01.TRUEFRENCH.1080p.WEB-DL.H264-FTMVHD

Star Wars Resistance.S02.TRUEFRENCH.1080p.WEB-DL.H264-FTMVHD

mot de passe : resistance
VIDEO...: 1080p WEB-DL DISNEY + # NiXON
AUDIO...: FR AC3 2.0 DISNEY + # FTMVHD
SUBS....: AUCUN

CONTACT.: FTMVHD-Team@protonmail.com

Unique ID                      : 250051671832649690430264425866147473860 (0xBC1E33431A57D3C244750CFCBB5D29C4)
Complete name                  : Star Wars Resistance.S01E01.TRUEFRENCH.1080p.WEB-DL.H264-FTMVHD.mkv
Format                         : Matroska
Format version                 : Version 4
File size                      : 1.34 GiB
Duration                       : 22 min 3 s
Overall bit rate mode          : Variable
Overall bit rate               : 8 687 kb/s
Movie name                     : Star Wars Resistance.S01E01.TRUEFRENCH.1080p.WEB-DL.H264-FTMVHD
Encoded date                   : UTC 2021-03-13 13:06:02
Writing application            : mkvmerge v52.0.0 ('Secret For The Mad') 64-bit
Writing library                : libebml v1.4.1 + libmatroska v1.6.2

Video
ID                             : 1
Format                         : AVC
Format/Info                    : Advanced Video Codec
Format profile                 : High@L4
Format settings                : CABAC / 4 Ref Frames
Format settings, CABAC         : Yes
Format settings, Reference fra : 4 frames
Codec ID                       : V_MPEG4/ISO/AVC
Duration                       : 22 min 3 s
Bit rate mode                  : Variable
Bit rate                       : 8 493 kb/s
Maximum bit rate               : 12.7 Mb/s
Width                          : 1 920 pixels
Height                         : 1 080 pixels
Display aspect ratio           : 16:9
Frame rate mode                : Constant
Frame rate                     : 23.976 (24000/1001) FPS
Color space                    : YUV
Chroma subsampling             : 4:2:0
Bit depth                      : 8 bits
Scan type                      : Progressive
Bits/(Pixel*Frame)             : 0.171
Stream size                    : 1.31 GiB (98%)
Title                          : 1080p WEB-DL US
Language                       : English
Default                        : Yes
Forced                         : No
Color range                    : Limited
Color primaries                : BT.709
Transfer characteristics       : BT.709
Matrix coefficients            : BT.709

Audio
ID                             : 2
Format                         : AC-3
Format/Info                    : Audio Coding 3
Commercial name                : Dolby Digital
Codec ID                       : A_AC3
Duration                       : 22 min 3 s
Bit rate mode                  : Constant
Bit rate                       : 192 kb/s
Channel(s)                     : 2 channels
Channel layout                 : L R
Sampling rate                  : 48.0 kHz
Frame rate                     : 31.250 FPS (1536 SPF)
Compression mode               : Lossy
Stream size                    : 30.3 MiB (2%)
Title                          : FR AC3 2.0
Language                       : French
Service kind                   : Complete Main
Default                        : Yes
Forced                         : No
VIDEO...: 1080p WEB-DL DISNEY XD # LAZY
AUDIO...: FR AC3 2.0 DISNEY + # FTMVHD
SUBS....: AUCUN

CONTACT.: FTMVHD-Team@protonmail.com

Unique ID                      : 207186528650810465649671799542141301690 (0x9BDEAC88A840D1C936DD00D904BE33BA)
Complete name                  : Star Wars Resistance.S02E01.TRUEFRENCH.1080p.WEB-DL.H264-FTMVHD.mkv
Format                         : Matroska
Format version                 : Version 4
File size                      : 812 MiB
Duration                       : 22 min 3 s
Overall bit rate               : 5 144 kb/s
Movie name                     : Star Wars Resistance.S02E01.TRUEFRENCH.1080p.WEB-DL.H264-FTMVHD
Encoded date                   : UTC 2021-03-13 16:30:56
Writing application            : mkvmerge v52.0.0 ('Secret For The Mad') 64-bit
Writing library                : libebml v1.4.1 + libmatroska v1.6.2

Video
ID                             : 1
Format                         : AVC
Format/Info                    : Advanced Video Codec
Format profile                 : High@L4
Format settings                : CABAC / 4 Ref Frames
Format settings, CABAC         : Yes
Format settings, Reference fra : 4 frames
Codec ID                       : V_MPEG4/ISO/AVC
Duration                       : 22 min 3 s
Bit rate                       : 4 951 kb/s
Width                          : 1 920 pixels
Height                         : 1 080 pixels
Display aspect ratio           : 16:9
Frame rate mode                : Constant
Frame rate                     : 23.976 (24000/1001) FPS
Color space                    : YUV
Chroma subsampling             : 4:2:0
Bit depth                      : 8 bits
Scan type                      : Progressive
Bits/(Pixel*Frame)             : 0.100
Stream size                    : 781 MiB (96%)
Title                          : 1080p WEB-DL US
Language                       : English
Default                        : Yes
Forced                         : No
Color range                    : Limited
Color primaries                : BT.709
Transfer characteristics       : BT.709
Matrix coefficients            : BT.709

Audio
ID                             : 2
Format                         : AC-3
Format/Info                    : Audio Coding 3
Commercial name                : Dolby Digital
Codec ID                       : A_AC3
Duration                       : 22 min 3 s
Bit rate mode                  : Constant
Bit rate                       : 192 kb/s
Channel(s)                     : 2 channels
Channel layout                 : L R
Sampling rate                  : 48.0 kHz
Frame rate                     : 31.250 FPS (1536 SPF)
Compression mode               : Lossy
Stream size                    : 30.3 MiB (4%)
Title                          : FR AC3 2.0
Language                       : French
Service kind                   : Complete Main
Default                        : Yes
Forced                         : No