Afro Samurai 1080p MULTi


Suite à la mort de son père dans un duel contre un mystérieux personnage, le jeune Afro décida de s’entraîner dur dans le but de le venger. Pour cela il apprendra l’art du maniement du sabre, tout au long de son parcours à la recherche de cet homme, il fera la rencontre de différents individus décidés à lui mettre des bâtons dans les roues ; il règlera ses comptes dans des combats tout aussi sanglants les uns que les autres.

Afro Samurai S1 [BDRIP][1080p 8bit Multi]

Afro.Samurai.Resurrection.DC.2009.Multi.1080p.BluRay.DTS-HD.MA.x264-Doudoune.mkv

mot de passe : afro
Unique ID                   : 224083626928842542541532029583741001269 (0xA894EFCC8C781A1A990A84178BF59E35)
Complete name               : Afro Samurai S1 E01 [BDRIP][1080p 8bit Multi].mkv
Format                      : Matroska
Format version              : Version 4
File size                   : 1.40 GiB
Duration                    : 26 min 15 s
Overall bit rate mode       : Variable
Overall bit rate            : 7 634 kb/s
Movie name                  : Épisode 1
Encoded date                : UTC 2019-05-05 01:12:12
Writing application         : mkvmerge v8.9.0 ('Father Daughter') 64bit
Writing library             : libebml v1.3.3 + libmatroska v1.4.4

Video
ID                          : 1
Format                      : AVC
Format/Info                 : Advanced Video Codec
Format profile              : High@L4.1
Format settings             : CABAC / 4 Ref Frames
Format settings, CABAC      : Yes
Format settings, Reference  : 4 frames
Codec ID                    : V_MPEG4/ISO/AVC
Duration                    : 26 min 15 s
Bit rate                    : 5 000 kb/s
Width                       : 1 920 pixels
Height                      : 1 080 pixels
Display aspect ratio        : 16:9
Frame rate mode             : Constant
Frame rate                  : 23.976 (24000/1001) FPS
Color space                 : YUV
Chroma subsampling          : 4:2:0
Bit depth                   : 8 bits
Scan type                   : Progressive
Bits/(Pixel*Frame)          : 0.101
Stream size                 : 939 MiB (65%)
Writing library             : x264 core 157 r2935 545de2f
Encoding settings           : cabac=1 / ref=4 / deblock=1:1:1 / analyse=0x3:0x113 / me=hex / subme=7 / psy=1 / psy_rd=0.40:0.00 / mixed_ref=1 / me_range=16 / chroma_me=1 / trellis=1 / 8x8dct=1 / cqm=0 / deadzone=21,11 / fast_pskip=1 / chroma_qp_offset=-2 / threads=12 / lookahead_threads=2 / sliced_threads=0 / nr=0 / decimate=1 / interlaced=0 / bluray_compat=0 / constrained_intra=0 / bframes=5 / b_pyramid=2 / b_adapt=1 / b_bias=0 / direct=1 / weightb=1 / open_gop=0 / weightp=2 / keyint=240 / keyint_min=24 / scenecut=40 / intra_refresh=0 / rc_lookahead=40 / rc=2pass / mbtree=1 / bitrate=5000 / ratetol=1.0 / qcomp=0.60 / qpmin=0 / qpmax=69 / qpstep=4 / cplxblur=20.0 / qblur=0.5 / vbv_maxrate=62500 / vbv_bufsize=78125 / nal_hrd=none / filler=0 / ip_ratio=1.40 / aq=1:0.60
Default                     : Yes
Forced                      : No
Color range                 : Limited
Color primaries             : BT.709
Transfer characteristics    : BT.709
Matrix coefficients         : BT.709

Audio #1
ID                          : 2
Format                      : AC-3
Format/Info                 : Audio Coding 3
Commercial name             : Dolby Digital
Codec ID                    : A_AC3
Duration                    : 25 min 59 s
Bit rate mode               : Constant
Bit rate                    : 448 kb/s
Channel(s)                  : 6 channels
Channel layout              : L R C LFE Ls Rs
Sampling rate               : 48.0 kHz
Frame rate                  : 31.250 FPS (1536 SPF)
Bit depth                   : 16 bits
Compression mode            : Lossy
Stream size                 : 83.3 MiB (6%)
Title                       : AC3 @448 Kbps
Language                    : French
Service kind                : Complete Main
Default                     : Yes
Forced                      : No

Audio #2
ID                          : 3
Format                      : FLAC
Format/Info                 : Free Lossless Audio Codec
Codec ID                    : A_FLAC
Duration                    : 26 min 15 s
Bit rate mode               : Variable
Bit rate                    : 1 740 kb/s
Channel(s)                  : 6 channels
Channel layout              : L R C LFE Ls Rs
Sampling rate               : 48.0 kHz
Frame rate                  : 11.719 FPS (4096 SPF)
Bit depth                   : 16 bits
Compression mode            : Lossless
Stream size                 : 327 MiB (23%)
Title                       : FLAC 5.1
Writing library             : libFLAC 1.2.1 (UTC 2007-09-17)
Language                    : English
Default                     : No
Forced                      : No

Audio #3
ID                          : 4
Format                      : AC-3
Format/Info                 : Audio Coding 3
Commercial name             : Dolby Digital
Codec ID                    : A_AC3
Duration                    : 26 min 15 s
Bit rate mode               : Constant
Bit rate                    : 448 kb/s
Channel(s)                  : 2 channels
Channel layout              : L R
Sampling rate               : 48.0 kHz
Frame rate                  : 31.250 FPS (1536 SPF)
Bit depth                   : 16 bits
Compression mode            : Lossy
Stream size                 : 84.2 MiB (6%)
Title                       : AC3 2.0
Language                    : English
Service kind                : Complete Main
Default                     : No
Forced                      : No

Text
ID                          : 5
Format                      : UTF-8
Codec ID                    : S_TEXT/UTF8
Codec ID/Info               : UTF-8 Plain Text
Duration                    : 23 min 52 s
Bit rate                    : 41 b/s
Count of elements           : 201
Stream size                 : 7.25 KiB (0%)
Title                       : SST French
Language                    : French
Default                     : No
Forced                      : No

Menu
00:00:00.000                : en:00:00:00.000
00:04:38.361                : en:00:04:38.361
00:09:35.408                : en:00:09:35.408
00:14:46.719                : en:00:14:46.719
00:19:30.461                : en:00:19:30.461
00:24:29.468                : en:00:24:29.468
Identifiant unique                       : 223822866763731993027560972123199022835 (0xA862B7548CE6876B9EFF5E2E6958A6F3)
Nom complet                              : Afro.Samurai.Resurrection.DC.2009.Multi.1080p.BluRay.DTS-HD.MA.x264-Doudoune.mkv
Format                                   : Matroska
Version du format                        : Version 4 / Version 2
Taille du fichier                        : 8,93 Gio
Durée                                    : 1 h 41 min
Type de débit global                     : Variable
Débit global moyen                       : 12,7 Mb/s
Nom du film                              : Afro Samurai Resurrection DC Doudoune
Date d'encodage                          : UTC 2017-06-06 02:05:12
Application utilisée                     : mkvmerge v11.0.0 ('Alive') 32bit
Bibliothèque utilisée                    : libebml v1.3.4 + libmatroska v1.4.5

Vidéo
ID                                       : 1
Format                                   : AVC
Format/Info                              : Advanced Video Codec
Profil du format                         : High@L4.1
Paramètres du format, CABAC              : Oui
Paramètres du format, RefFrames          : 4 images
Identifiant du codec                     : V_MPEG4/ISO/AVC
Durée                                    : 1 h 40 min
Type de débit                            : Variable
Largeur                                  : 1 920 pixels
Hauteur                                  : 1 080 pixels
Format à l'écran                         : 16/9
Type d'images/s                          : Constant
Images par seconde                       : 23,976 (24000/1001) Im/s
Espace de couleurs                       : YUV
Sous-échantillonnage de la chrominance   : 4:2:0
Profondeur des couleurs                  : 8 bits
Type de balayage                         : Progressif
Bits/(Pixel*Image)                       : 0.191
Taille du flux                           : 6,67 Gio (75%)
Bibliothèque utilisée                    : x264 core 148 r2762 90a61ec
Paramètres d'encodage                    : cabac=1 / ref=4 / deblock=1:1:1 / analyse=0x3:0x133 / me=umh / subme=10 / psy=1 / psy_rd=0.40:0.00 / mixed_ref=1 / me_range=24 / chroma_me=1 / trellis=2 / 8x8dct=1 / cqm=0 / deadzone=21,11 / fast_pskip=1 / chroma_qp_offset=-2 / threads=12 / lookahead_threads=3 / sliced_threads=0 / nr=0 / decimate=1 / interlaced=0 / bluray_compat=0 / constrained_intra=0 / bframes=10 / b_pyramid=2 / b_adapt=2 / b_bias=0 / direct=3 / weightb=1 / open_gop=0 / weightp=2 / keyint=240 / keyint_min=24 / scenecut=40 / intra_refresh=0 / rc_lookahead=60 / rc=2pass / mbtree=1 / bitrate=9500 / ratetol=1.0 / qcomp=0.60 / qpmin=0 / qpmax=69 / qpstep=4 / cplxblur=20.0 / qblur=0.5 / vbv_maxrate=62500 / vbv_bufsize=62500 / nal_hrd=vbr / filler=0 / ip_ratio=1.40 / aq=1:0.60
Default                                  : Oui
Forced                                   : Non

Audio #1
ID                                       : 2
Format                                   : DTS
Format/Info                              : Digital Theater Systems
Profil du format                         : MA / Core
Paramètres du format, Mode               : 16
Paramètres du format, Endianness         : Big
Identifiant du codec                     : A_DTS
Durée                                    : 1 h 41 min
Type de débit                            : Variable / Constant
Débit                                    : 1 689 kb/s / 768 kb/s
Canaux                                   : 6 canaux
Position des cannaux                     : Front: L C R, Side: L R, LFE
Echantillonnage                          : 48,0 kHz
Images par seconde                       : 93,750 Im/s (512 spf)
Profondeur des couleurs                  : 16 bits
Mode de compression                      : Sans perte / Lossy
Taille du flux                           : 1,19 Gio (13%)
Langue                                   : Français
Default                                  : Oui
Forced                                   : Non

Audio #2
ID                                       : 3
Format                                   : DTS
Format/Info                              : Digital Theater Systems
Profil du format                         : MA / Core
Paramètres du format, Mode               : 16
Paramètres du format, Endianness         : Big
Identifiant du codec                     : A_DTS
Durée                                    : 1 h 40 min
Type de débit                            : Variable / Constant
Débit                                    : 1 536 kb/s / 768 kb/s
Canaux                                   : 6 canaux
Position des cannaux                     : Front: L C R, Side: L R, LFE
Echantillonnage                          : 48,0 kHz
Images par seconde                       : 93,750 Im/s (512 spf)
Profondeur des couleurs                  : 16 bits
Mode de compression                      : Sans perte / Lossy
Taille du flux                           : 1,06 Gio (12%)
Langue                                   : Anglais
Default                                  : Non
Forced                                   : Non

Texte #1
ID                                       : 4
Format                                   : PGS
Type de muxing                           : zlib
Identifiant du codec                     : S_HDMV/PGS
Identifiant du codec/Info                : Picture based subtitle format used on BDs/HD-DVDs
Durée                                    : 1 h 39 min
Débit                                    : 9 315 b/s
ElementCount                             : 1453
Taille du flux                           : 6,65 Mio (0%)
Langue                                   : Français
Default                                  : Non
Forced                                   : Non

Texte #2
ID                                       : 5
Format                                   : PGS
Type de muxing                           : zlib
Identifiant du codec                     : S_HDMV/PGS
Identifiant du codec/Info                : Picture based subtitle format used on BDs/HD-DVDs
Durée                                    : 1s 418 ms
Débit                                    : 22,2 kb/s
ElementCount                             : 2
Taille du flux                           : 3,85 Kio (0%)
Langue                                   : Français
Default                                  : Non
Forced                                   : Oui

Menu
00:00:00.000                             : en:Chapter 00
00:06:17.377                             : en:Chapter 01
00:14:12.434                             : en:Chapter 02
00:25:06.880                             : en:Chapter 03
00:31:53.077                             : en:Chapter 04
00:39:48.052                             : en:Chapter 05
00:50:50.464                             : en:Chapter 06
01:00:57.236                             : en:Chapter 07
01:10:45.282                             : en:Chapter 08
01:19:22.883                             : en:Chapter 09
01:26:56.794                             : en:Chapter 10
01:35:57.126                             : en:Chapter 11