Fullmetal Alchemist 1080p MULTi


Après avoir perdu leur mère, Edward et Alphonse tentent de la ramener à la vie grâce à l’alchimie. Cependant, l’alchimie doit obéir à la loi de l’échange équivalent : l’objet transformé et l’objet issu de la transformation doivent être de masses équivalentes. Passer outre cette règle coûte très cher, et les frères Elric en feront les frais : Edward perd un bras et une jambe alors que son frère Alphonse perd son corps. Heureusement Edward réussit à enfermer l’âme de son frère dans une armure de métal grâce à un sceau de sang.
Ils décident alors de quitter leur maison pour partir à la recherche d’informations sur la pierre philosophale, qui leur permettrait de regagner leurs corps. Cependant, ils ne sont pas les seuls à la recherche de cette pierre…

Fullmetal.Alchemist.MULTi.1080p.BluRay.REMUX.x264-raton

Fullmetal.Alchemist.Brotherhood.MULTi.1080p.BluRay.x264-EBD

mot de passe : alchemist
Unique ID                   : 190353638696378761335804988853767338346 (0x8F34C6FBBF084BD3931F4C4FC46F796A)
Complete name               : Fullmetal.Alchemist.E01.MULTi.1080p.BluRay.REMUX.x264-raton.mkv
Format                      : Matroska
Format version              : Version 4
File size                   : 3.72 GiB
Duration                    : 23 min 54 s
Overall bit rate mode       : Variable
Overall bit rate            : 22.3 Mb/s
Encoded date                : UTC 2019-06-17 02:27:49
Writing application         : mkvmerge v8.9.0 ('Father Daughter') 64bit
Writing library             : libebml v1.3.3 + libmatroska v1.4.4

Video
ID                          : 1
Format                      : AVC
Format/Info                 : Advanced Video Codec
Format profile              : High@L4.1
Format settings             : CABAC / 4 Ref Frames
Format settings, CABAC      : Yes
Format settings, Reference  : 4 frames
Codec ID                    : V_MPEG4/ISO/AVC
Duration                    : 23 min 54 s
Bit rate mode               : Variable
Bit rate                    : 21.0 Mb/s
Maximum bit rate            : 39.5 Mb/s
Width                       : 1 920 pixels
Height                      : 1 080 pixels
Display aspect ratio        : 16:9
Frame rate mode             : Constant
Frame rate                  : 23.976 (24000/1001) FPS
Color space                 : YUV
Chroma subsampling          : 4:2:0
Bit depth                   : 8 bits
Scan type                   : Progressive
Bits/(Pixel*Frame)          : 0.422
Stream size                 : 3.50 GiB (94%)
Default                     : Yes
Forced                      : No

Audio #1
ID                          : 2
Format                      : AC-3
Format/Info                 : Audio Coding 3
Commercial name             : Dolby Digital
Codec ID                    : A_AC3
Duration                    : 23 min 54 s
Bit rate mode               : Constant
Bit rate                    : 224 kb/s
Channel(s)                  : 2 channels
Channel layout              : L R
Sampling rate               : 48.0 kHz
Frame rate                  : 31.250 FPS (1536 SPF)
Bit depth                   : 16 bits
Compression mode            : Lossy
Stream size                 : 38.3 MiB (1%)
Title                       : FR AC3 2.0
Language                    : French
Service kind                : Complete Main
Default                     : Yes
Forced                      : No

Audio #2
ID                          : 3
Format                      : MLP FBA
Format/Info                 : Meridian Lossless Packing FBA
Commercial name             : Dolby TrueHD
Codec ID                    : A_TRUEHD
Duration                    : 23 min 54 s
Bit rate mode               : Variable
Bit rate                    : 831 kb/s
Maximum bit rate            : 1 248 kb/s
Channel(s)                  : 2 channels
Channel layout              : L R
Sampling rate               : 48.0 kHz
Frame rate                  : 1 200.000 FPS (40 SPF)
Compression mode            : Lossless
Stream size                 : 142 MiB (4%)
Language                    : Japanese
Default                     : No
Forced                      : No

Audio #3
ID                          : 4
Format                      : AC-3
Format/Info                 : Audio Coding 3
Commercial name             : Dolby Digital
Codec ID                    : A_AC3
Duration                    : 23 min 54 s
Bit rate mode               : Constant
Bit rate                    : 192 kb/s
Channel(s)                  : 2 channels
Channel layout              : L R
Sampling rate               : 48.0 kHz
Frame rate                  : 31.250 FPS (1536 SPF)
Bit depth                   : 16 bits
Compression mode            : Lossy
Stream size                 : 32.8 MiB (1%)
Language                    : Japanese
Service kind                : Complete Main
Default                     : No
Forced                      : No

Text #1
ID                          : 5
Format                      : ASS
Codec ID                    : S_TEXT/ASS
Codec ID/Info               : Advanced Sub Station Alpha
Duration                    : 22 min 18 s
Bit rate                    : 4 b/s
Count of elements           : 8
Compression mode            : Lossless
Stream size                 : 726 Bytes (0%)
Title                       : FR Forced ASS
Language                    : French
Default                     : Yes
Forced                      : Yes

Text #2
ID                          : 6
Format                      : ASS
Codec ID                    : S_TEXT/ASS
Codec ID/Info               : Advanced Sub Station Alpha
Duration                    : 23 min 38 s
Bit rate                    : 93 b/s
Count of elements           : 274
Compression mode            : Lossless
Stream size                 : 16.2 KiB (0%)
Title                       : FR Complet ASS
Language                    : French
Default                     : No
Forced                      : No

Menu
00:00:00.000                : en:00:00:00.000
00:02:49.920                : en:00:02:49.920
00:09:59.933                : en:00:09:59.933
00:21:55.564                : en:00:21:55.564
00:23:38.042                : en:00:23:38.042
Nom complet                              : [EBD].Fullmetal.Alchemist.Brotherhood.01.[Bluray.1080p.x264.Multi.ac3].[774826EF].mkv
Format                                   : Matroska
Version du format                        : Version 4 / Version 2
Taille du fichier                        : 843 Mio
Duree                                    : 24mn 27s
Debit global moyen                       : 4 816 Kbps
Date d'encodage                          : UTC 2013-08-02 16:55:27
Application utilisee                     : mkvmerge v6.3.0 ('You can't stop me!') built on Jun 28 2013 20:09:41
Bibliotheque utilisee                    : libebml v1.3.0 + libmatroska v1.4.0

Video
ID                                       : 1
Format                                   : AVC
Format/Info                              : Advanced Video Codec
Profil du format                         : High@L4.1
Parametres du format, CABAC              : Oui
Parametres du format, RefFrames          : 4 images
Identifiant du codec                     : V_MPEG4/ISO/AVC
Duree                                    : 24mn 27s
Debit                                    : 3 824 Kbps
Largeur                                  : 1 920 pixels
Hauteur                                  : 1 080 pixels
Format a l'ecran                         : 16/9
Type d'images/s                          : Constant
Images par seconde                       : 23,976 Im/s
Espace de couleurs                       : YUV
Sous-echantillonnage de la chrominance   : 4:2:0
Profondeur des couleurs                  : 8 bits
Type de balayage                         : Progressif
Bits/(Pixel*Image)                       : 0.077
Taille du flux                           : 669 Mio (79%)
Bibliotheque utilisee                    : x264 core 130 r2273 b3065e6
Parametres d'encodage                    : cabac=1 / ref=4 / deblock=1:1:1 / analyse=0x3:0x133 / me=umh / subme=10 / psy=1 / psy_rd=0.40:0.00 / mixed_ref=1 / me_range=24 / chroma_me=1 / trellis=2 / 8x8dct=1 / cqm=0 / deadzone=21,11 / fast_pskip=1 / chroma_qp_offset=-2 / threads=6 / lookahead_threads=1 / sliced_threads=0 / nr=0 / decimate=1 / interlaced=0 / bluray_compat=0 / constrained_intra=0 / bframes=10 / b_pyramid=2 / b_adapt=2 / b_bias=0 / direct=3 / weightb=1 / open_gop=0 / weightp=2 / keyint=240 / keyint_min=24 / scenecut=40 / intra_refresh=0 / rc_lookahead=60 / rc=crf / mbtree=1 / crf=16.0 / qcomp=0.60 / qpmin=0 / qpmax=69 / qpstep=4 / vbv_maxrate=62500 / vbv_bufsize=78125 / crf_max=0.0 / nal_hrd=none / ip_ratio=1.40 / aq=1:0.60
Langue                                   : Japonais
Default                                  : Oui
Forced                                   : Non
Gamme de couleurs                        : Limited
Coordonnees de chromaticite              : BT.709
Caracteristiques du transfert            : BT.709
Coefficients de la matrice               : BT.709

Audio #1
ID                                       : 2
Format                                   : AC-3
Format/Info                              : Audio Coding 3
Extension du mode                        : CM (complete main)
Parametres du format, Endianness         : Big
Identifiant du codec                     : A_AC3
Duree                                    : 24mn 27s
Type de debit                            : Constant
Debit                                    : 448 Kbps
Canaux                                   : 2 canaux
Position des cannaux                     : Front: L R
Echantillonnage                          : 48,0 KHz
Mode de compression                      : Avec perte
Taille du flux                           : 78,4 Mio (9%)
Titre                                    : Japonais
Langue                                   : Japonais
Default                                  : Oui
Forced                                   : Non

Audio #2
ID                                       : 3
Format                                   : AC-3
Format/Info                              : Audio Coding 3
Extension du mode                        : CM (complete main)
Parametres du format, Endianness         : Big
Identifiant du codec                     : A_AC3
Duree                                    : 24mn 27s
Type de debit                            : Constant
Debit                                    : 448 Kbps
Canaux                                   : 2 canaux
Position des cannaux                     : Front: L R
Echantillonnage                          : 48,0 KHz
Mode de compression                      : Avec perte
Taille du flux                           : 78,4 Mio (9%)
Titre                                    : Fran??ais
Langue                                   : Fran??ais
Default                                  : Non
Forced                                   : Non

Texte
ID                                       : 4
Format                                   : UTF-8
Identifiant du codec                     : S_TEXT/UTF8
Identifiant du codec/Info                : UTF-8 Plain Text
Titre                                    : Fran??ais pour la piste audio japonaise
Langue                                   : Fran??ais
Default                                  : Oui
Forced                                   : Non

Menu
00:00:00.000                             : en:Intro / generique
00:02:29.149                             : enartie 1
00:10:55.154                             : enartie 2
00:22:26.845                             : en:Generique
00:23:57.519                             : enreview

Fullmetal.Alchemist.L.Etoile.Sacree.De.Milos.MULTi.1080p.BluRay.x264-DEAL.mkv

Fullmetal.Alchemist.The.Conqueror.Of.Shamballa.2005.MULTi.720p.Bluray.x264-KHAYA.mkv

Fullmetal.Alchemist.OAV.1-3.+Reflections.480p.VOSTFR.[HQ][Anime-Ultime]

mot de passe : alchemist
                                                              '
    aY cArAMbAs!                                           ▄▓█
                                   ▄▄▓▄       ▄███▓▄      ▄▓██
                   ██▓▄         ▄▓█▀▓██▓▄   ▄▓██ ▀██▓▄   ▐▓███
                    ▀██▓▄     ▄▓██   ▀███▓  ▓██▌  ▐███▓  ████▌
                     ████▓   ▐▓██▌    ████▌ ███▓   ▐███▌ ████▌
                     ▐████▌  ████▓   ▄████▓▐███▓    ███▓ ████▌
                      ████▓  █████▄██████▓▀        ▐███▓ ▓████
                      ▐███▓ ▄█████▀▀▀▀▀▀    ▄▄▄█████████▓▐████▌
              ▄▄▄██████████▓▀▓████     ▄▄▄▓█▓██▌    ▐███▓ ▓████  ▄█████▌.:2o11:.
              ▓███▀    ▐███▓ ▐████▌    ▐████▓███     ████▓ ▀▓██▓█████▓▀
              ▓███▌     ████  ▓████   ▄█████▓███▌   ▄██▓     ▀████▀▀▀
              ▓████    ▄████▓  ▀▓██▓▄█████▓▀ ▀▓██████▓▀
               ▀▓███▄▄████▀██▓   ▀█████▀▀▀
                 ▀█████▀▀


              Fullmetal.Alchemist.L.Etoile.Sacree.De.Milos.MULTi.1080p.BluRay.x264-DEAL


                       -:::::::::::::::iNFORMATiONS:::::::::::::::-
                            

                            codec video .......: X264
                            pass video ........: 2 pass
                            bitrate video .....: 8 344 Kbps
                            framerate .........: 23.976 fps
                            resolution ........: 1920x1080

                            lang audio ........: French - Japanese
                            lang sub ..........: French

                            codec audio .......: DTS 5.1
                            biterate audio ....: 755 Kbps
                            frequence .........: 48.0 KHz

                            duree .............: 1h 50m 3s
                            taille ............: 7.65 Gio
                            pack ..............: 83x100mB

                            link ..............: http://www.animeka.com/animes/detail/hagane-no-renkinjutsushi-milos-no-sei.html
General
Unique ID                                : 229926190383178534941568740780468708387 (0xACFA2C6AE005AE76A52423873371A423)
Complete name                            : Fullmetal.Alchemist.The.Conqueror.Of.Shamballa.2005.MULTi.720p.BluRay.x264-KHAYA.mkv
Format                                   : Matroska
Format version                           : Version 2
File size                                : 1.81 GiB
Duration                                 : 1h 49mn
Overall bit rate                         : 2 376 Kbps
Encoded date                             : UTC 2012-10-19 02:59:47
Writing application                      : mkvmerge v5.6.0 ('Kenya Kane') built on May 27 2012 16:44:04
Writing library                          : libebml v1.2.3 + libmatroska v1.3.0

Video
ID                                       : 1
Format                                   : AVC
Format/Info                              : Advanced Video Codec
Format profile                           : High@L4.1
Format settings, CABAC                   : Yes
Format settings, ReFrames                : 8 frames
Codec ID                                 : V_MPEG4/ISO/AVC
Duration                                 : 1h 49mn
Bit rate                                 : 1 048 Kbps
Width                                    : 1 280 pixels
Height                                   : 720 pixels
Display aspect ratio                     : 16:9
Frame rate mode                          : Constant
Frame rate                               : 23.976 fps
Color space                              : YUV
Chroma subsampling                       : 4:2:0
Bit depth                                : 8 bits
Scan type                                : Progressive
Bits/(Pixel*Frame)                       : 0.047
Stream size                              : 819 MiB (44%)
Writing library                          : x264 core 122 r2184 5c85e0a
Encoding settings                        : cabac=1 / ref=8 / deblock=1:0:0 / analyse=0x3:0x113 / me=hex / subme=10 / psy=1 / psy_rd=1.00:0.00 / mixed_ref=1 / me_range=16 / chroma_me=1 / trellis=2 / 8x8dct=1 / cqm=0 / deadzone=21,11 / fast_pskip=1 / chroma_qp_offset=-2 / threads=3 / sliced_threads=0 / nr=0 / decimate=1 / interlaced=0 / bluray_compat=0 / constrained_intra=0 / bframes=5 / b_pyramid=2 / b_adapt=2 / b_bias=0 / direct=3 / weightb=1 / open_gop=0 / weightp=2 / keyint=230 / keyint_min=23 / scenecut=40 / intra_refresh=0 / rc_lookahead=40 / rc=crf / mbtree=1 / crf=20.0 / qcomp=0.60 / qpmin=15 / qpmax=25 / qpstep=4 / ip_ratio=1.40 / aq=1:1.00
Default                                  : Yes
Forced                                   : No

Audio #1
ID                                       : 2
Format                                   : AC-3
Format/Info                              : Audio Coding 3
Mode extension                           : CM (complete main)
Format settings, Endianness              : Big
Codec ID                                 : A_AC3
Duration                                 : 1h 49mn
Bit rate mode                            : Constant
Bit rate                                 : 640 Kbps
Channel(s)                               : 2 channels
Channel positions                        : Front: L R
Sampling rate                            : 48.0 KHz
Bit depth                                : 16 bits
Compression mode                         : Lossy
Stream size                              : 500 MiB (27%)
Language                                 : Japanese
Default                                  : Yes
Forced                                   : No

Audio #2
ID                                       : 3
Format                                   : AC-3
Format/Info                              : Audio Coding 3
Mode extension                           : CM (complete main)
Format settings, Endianness              : Big
Codec ID                                 : A_AC3
Duration                                 : 1h 49mn
Bit rate mode                            : Constant
Bit rate                                 : 640 Kbps
Channel(s)                               : 2 channels
Channel positions                        : Front: L R
Sampling rate                            : 48.0 KHz
Bit depth                                : 16 bits
Compression mode                         : Lossy
Delay relative to video                  : 1s 0ms
Stream size                              : 500 MiB (27%)
Language                                 : French
Default                                  : No
Forced                                   : No

Text
ID                                       : 4
Format                                   : UTF-8
Codec ID                                 : S_TEXT/UTF8
Codec ID/Info                            : UTF-8 Plain Text
Language                                 : French
Default                                  : Yes
Forced                                   : No