Les Mystérieuses Cités d’Or 720p/1080p VF


XVIème siècle. Des quatre coins de l’Europe, de gigantesques voiliers partent à la conquête du nouveau monde. À bord de ces navires, des hommes avides de rêves et d’aventures. La promesse de terres lointaines, peuplées de légendes et de richesses, attise toutes les convoitises.
Esteban, jeune orphelin de Barcelone, embarque dans un de ces navires à la recherche de son père. Son chemin va croiser celui de Zia, une jeune Inca, ainsi que celui de Tao, dernier descendant de l’empire de Mu. Accompagnés du mystérieux Mendoza et de ses deux acolytes, Sancho et Pedro, ils s’engagent dans une aventure périlleuse à la recherche des mystérieuses Cités d’Or !

Les.Mysterieuses.Cites.D.Or.1983.S01.FRENCH.1080p.BluRay.x264-KAZETV

Les.Mysterieuses.Cites.D.Or.2012.S02.FRENCH.1080p.BluRay.x264-KAZETV

Les.Mysterieuses.Cites.D.Or.S03.FRENCH.1080p.WEB-DL.H264.DD5.1-CUSThOMe

mot de passe : esteban
KAZETV brings to you :

Les.Mysterieuses.Cites.D.Or.1983.E01.FRENCH.1080p.BluRay.x264-KAZETV

----- Video Info -----

* codec      : X264
* pass       : 2 pass
* bitrate    : 7 066 Kbps
* framerate  : 25.000 fps
* resolution : 1440x1080

----- Audio Info -----

* track     : French
* subtitle  : 

* codec     : AC3 2.0
* biterate  : 640 Kbps
* frequence : 48.0 KHz

----- Packing Info -----

* runtime   : 27min 04s 
* size      : 1.46 Gio
* pack      : 32x50mB

* link      : http://www.allocine.fr/series/ficheserie_gen_cserie=763.html

* note      : Toute une jeunesse envolee :)
KAZETV brings to you :

Les.Mysterieuses.Cites.D.Or.2012.S02E01.FRENCH.1080p.BluRay.x264-KAZETV

----- Video Info -----

* codec      : X264
* pass       : 2 pass
* bitrate    : 7 813 Kbps
* framerate  : 25.000 fps
* resolution : 1920x1080

----- Audio Info -----

* track     : French
* subtitle  : 

* codec     : DTS 5.1
* biterate  : 1509 Kbps
* frequence : 48.0 KHz

----- Packing Info -----

* runtime   : 22min 22s 
* size      : 1.46 Gio
* pack      : 32x50mB

* link      : http://www.allocine.fr/series/ficheserie_gen_cserie=4648.html

* note      : Episode 1.

* note 2    : Bon, bah c'est comment dire, repartit lol !
Unique ID                                : 95297539353929831666059983186551661560 (0x47B1A3728FABF07AB6A58F22FB7063F8)
Format                                   : Matroska
Format version                           : Version 4 / Version 2
File size                                : 905 MiB
Duration                                 : 23 min 2 s
Overall bit rate                         : 5 493 kb/s
Movie name                               : Les.Mysterieuses.Cites.D.Or.S03E26.FiNAL.FRENCH.1080p.WEB-DL.H264.DD5.1-CUSThOMe
Encoded date                             : UTC 2019-05-19 10:59:16
Writing application                      : mkvmerge v31.0.0 ('Dolores In A Shoestand') 64-bit
Writing library                          : libebml v1.3.6 + libmatroska v1.4.9

Video
ID                                       : 1
Format                                   : AVC
Format/Info                              : Advanced Video Codec
Format profile                           : High@L4
Format settings                          : CABAC / 4 Ref Frames
Format settings, CABAC                   : Yes
Format settings, RefFrames               : 4 frames
Codec ID                                 : V_MPEG4/ISO/AVC
Duration                                 : 23 min 2 s
Bit rate                                 : 5 107 kb/s
Width                                    : 1 912 pixels
Height                                   : 1 072 pixels
Display aspect ratio                     : 16:9
Frame rate mode                          : Constant
Frame rate                               : 25.000 FPS
Color space                              : YUV
Chroma subsampling                       : 4:2:0
Bit depth                                : 8 bits
Scan type                                : Progressive
Bits/(Pixel*Frame)                       : 0.100
Stream size                              : 841 MiB (93%)
Language                                 : French
Default                                  : Yes
Forced                                   : No
Color range                              : Limited
Color primaries                          : BT.709
Transfer characteristics                 : BT.709
Matrix coefficients                      : BT.709

Audio
ID                                       : 2
Format                                   : AC-3
Format/Info                              : Audio Coding 3
Codec ID                                 : A_AC3
Duration                                 : 23 min 2 s
Bit rate mode                            : Constant
Bit rate                                 : 384 kb/s
Channel(s)                               : 6 channels
Channel positions                        : Front: L C R, Side: L R, LFE
Sampling rate                            : 48.0 kHz
Frame rate                               : 31.250 FPS (1536 SPF)
Bit depth                                : 16 bits
Compression mode                         : Lossy
Stream size                              : 63.3 MiB (7%)
Title                                    : FR AC3 5.1
Language                                 : French
Service kind                             : Complete Main
Default                                  : Yes
Forced                                   : No

Les.Mysterieuses.Cites.D.Or.1983.FRENCH.720p.BluRay.x264-KAZETV

Les.Mysterieuses.Cites.D.Or.2012.S02.FRENCH.720p.BluRay.x264-KAZETV

mot de passe : esteban
KAZETV brings to you :

Les.Mysterieuses.Cites.D.Or.1983.E39.FiNAL.FRENCH.720p.BluRay.x264-KAZETV

----- Video Info -----

* codec      : X264
* pass       : 2 pass
* bitrate    : 4 046 Kbps
* framerate  : 25.000 fps
* resolution : 960x720

----- Audio Info -----

* track     : French
* subtitle  : 

* codec     : AC3 2.0
* biterate  : 640 Kbps
* frequence : 48.0 KHz

----- Packing Info -----

* runtime   : 26min 42s 
* size      : 896 Mio
* pack      : 19x50mB

* link      : http://www.allocine.fr/series/ficheserie_gen_cserie=763.html

* note 1    : Toute une jeunesse envolee :)

* note 2    : A force de taper le check des episodes, t'as les paroles dans le crâne !!!!!


Le 16eme siècle.
Des quatre coins de l'Europe, de gigantesques voiliers partent à la conquête
du Nouveau Monde. A bord de ces navires des hommes avides de rêves, d'aventure
et d'espace, à la recherche de fortune.
Qui n'a jamais rêvé de ces mondes souterrains, de ces mers lointaines peuplées
de légendes ou d'une richesse soudaine qui se conquerrait au détour d'un chemin
de la Cordillère des Andes ? Qui n'a jamais souhaite voir le soleil souverain
guider ses pas, au coeur du pays Inca, vers la richesse et l'histoire des
Mystérieuses Cites d'Or !

Enfant du soleil
Tu parcours la terre le ciel
Cherche ton chemin
C'est ta vie, c'est ton destin
Et le jour, la nuit
Avec tes deux meilleurs amis
A bord du Grand Condor
Tu recherches les Cites d'Or

ah ah ah ah ah
Esteban, Zia, Tao les Cites d'Or
aaaah ah ah ah ah
Esteban, Zia, Tao les Cites d'Or

Tou-dou dou-dou dou
Ah ah ah
Tou-dou dou-dou dou
les Cites d'Or

Enfant du soleil
Ton destin est sans pareil
L'aventure t'appelle
N'attends pas et cours vers elle ...

aaaah ah ah ah ah
Esteban, Zia, Tao les Cites d'Or

* note 3    : Merci de m'avoir suivi dans cette folle aventure.
KAZETV brings to you :

Les.Mysterieuses.Cites.D.Or.2012.S02E26.FiNAL.FRENCH.720p.BluRay.x264-KAZETV

----- Video Info -----

* codec      : X264
* pass       : 2 pass
* bitrate    : 4 090 Kbps
* framerate  : 25.000 fps
* resolution : 1280x720

----- Audio Info -----

* track     : French
* subtitle  : 

* codec     : DTS 5.1
* biterate  : 1509 Kbps
* frequence : 48.0 KHz

----- Packing Info -----

* runtime   : 22min 22s 
* size      : 895 Gio
* pack      : 19x50mB

* link      : http://www.allocine.fr/series/ficheserie_gen_cserie=4648.html

* note      : Episode 26 FiNAL.

* note 2    : Bon, bah c'est comment dire, repartit lol !