Inspecteur Gadget 480p VF


L’inspecteur Gadget est un cyber-policier doté de nombreux gadgets directement intégrés à son corps. Il lutte pour le compte de la police contre l’organisation M.A.D., dirigée par le sinistre Docteur Gang, Gadget est très naïf, n’est pas très astucieux et se trompe souvent dans ses jugements, mais il a beaucoup de chance, ce qui lui permet à chaque fois de résoudre les enquêtes presque sans le faire exprès. Il est en fait systématiquement aidé par sa nièce Sophie, une jeune fille très débrouillarde, et son chien Finot, qui est très intelligent et capable de communiquer avec Sophie.

Inspecteur.Gadget.1983.FRENCH.DVDRiP.X264.INT-BOOLZ

Inspector.Gadget.2015.S01.MULTi.1080p.WEBRip.x264-D4KiD

mot de passe : gadget
Complete name                            : Inspecteur.Gadget.Vol01.FRENCH.DVDRiP.X264.INT-BOOLZ/01-La.Malediction.Du.Roi.Toutankharton.mkv
Format                                   : Matroska
Format version                           : Version 2
File size                                : 250 MiB
Duration                                 : 21mn 31s
Overall bit rate mode                    : Variable
Overall bit rate                         : 1 621 Kbps
Encoded date                             : UTC 2013-06-30 09:41:58
Writing application                      : mkvmerge v6.2.0 ('Promised Land') built on Apr 28 2013 12:22:01
Writing library                          : libebml v1.3.0 + libmatroska v1.4.0

Video
ID                                       : 1
Format                                   : AVC
Format/Info                              : Advanced Video Codec
Format profile                           : High@L4.1
Format settings, CABAC                   : Yes
Format settings, ReFrames                : 5 frames
Codec ID                                 : V_MPEG4/ISO/AVC
Duration                                 : 21mn 31s
Bit rate mode                            : Variable
Bit rate                                 : 1 428 Kbps
Maximum bit rate                         : 40.0 Mbps
Width                                    : 640 pixels
Height                                   : 480 pixels
Display aspect ratio                     : 4:3
Frame rate                               : 25.000 fps
Color space                              : YUV
Chroma subsampling                       : 4:2:0
Bit depth                                : 8 bits
Scan type                                : Progressive
Bits/(Pixel*Frame)                       : 0.186
Stream size                              : 215 MiB (86%)
Writing library                          : x264 core 133 r2334 a3ac64b
Encoding settings                        : cabac=1 / ref=6 / deblock=1:1:1 / analyse=0x3:0x113 / me=hex / subme=7 / psy=1 / psy_rd=0.40:0.00 / mixed_ref=1 / me_range=16 / chroma_me=1 / trellis=1 / 8x8dct=1 / cqm=0 / deadzone=21,11 / fast_pskip=1 / chroma_qp_offset=-2 / threads=3 / lookahead_threads=1 / sliced_threads=0 / slices=4 / nr=0 / decimate=1 / interlaced=0 / bluray_compat=1 / constrained_intra=0 / bframes=3 / b_pyramid=1 / b_adapt=1 / b_bias=0 / direct=1 / weightb=1 / open_gop=1 / weightp=1 / keyint=25 / keyint_min=1 / scenecut=40 / intra_refresh=0 / rc_lookahead=25 / rc=2pass / mbtree=1 / bitrate=1428 / ratetol=1.0 / qcomp=0.60 / qpmin=0 / qpmax=69 / qpstep=4 / cplxblur=20.0 / qblur=0.5 / vbv_maxrate=40000 / vbv_bufsize=30000 / nal_hrd=vbr / ip_ratio=1.40 / aq=1:0.60
Default                                  : Yes
Forced                                   : No

Audio
ID                                       : 2
Format                                   : AC-3
Format/Info                              : Audio Coding 3
Mode extension                           : CM (complete main)
Codec ID                                 : A_AC3
Duration                                 : 21mn 31s
Bit rate mode                            : Constant
Bit rate                                 : 192 Kbps
Channel(s)                               : 2 channels
Channel positions                        : Front: L R
Sampling rate                            : 48.0 KHz
Bit depth                                : 16 bits
Compression mode                         : Lossy
Delay relative to video                  : 16ms
Stream size                              : 29.6 MiB (12%)
Language                                 : French
Default                                  : Yes
Forced                                   : No
D.A. For Kidz Presents...
.
.... Inspector.Gadget.2015.S01E26.FiNAL.MULTi.1080p.WEBRip.x264-D4KiD
.
Date....: 01/07/2018
Video...: x264 3 010 kb/s
Reso....: 1920x1080 - 16:9
FPS.....: 23.976
Audio...: FR AC3 384 kb/s 5.1
          EN AC3 384 kb/s 5.1
Subs....: FR EN_SDH
Size....: 609 Mo
Duration: 00:22:45.920
Rar.....: 13 * 50 Mo
Source..: Netflix (Untouched)
Link....: http://www.imdb.com/title/tt3910690/