The Spectacular Spider-Man 720p/1080p MULTi


C’est la rentrée des classes pour Peter Parker, un lycéen de 16 ans très doué en sciences mais également l’objet de risée dans son lycée. Ce que tous ignorent par contre, c’est que quelques mois plus tôt, Peter Parker s’est fait piquer par une araignée génétiquement modifiée lui conférant des super pouvoirs. C’est ainsi qu’il est devenu Spider-Man, un super-héros qui a promis de lutter contre le mal dans la ville de New-York suite au meurtre de son oncle Ben.

The.Spectacular.Spider-Man.COMPLETE.MULTi.1080p.BluRay.x264-KAZETV

mot de passe : spider
KAZETV brings to you :

The.Spectacular.Spider-Man.S02E13.FiNAL.MULTi.1080p.BluRay.x264-KAZETV

----- Video Info -----

* codec      : X264
* pass       : 2 pass
* bitrate    : 7 268 Kbps
* framerate  : 23.976 fps
* resolution : 1920x1080

----- Audio Info -----

* track     : French AC3 & English DTS
* subtitle  : French & French Forced & English & English SDH

* codec     : AC3 5.1
* bitrate   : 640 Kbps
* frequence : 48.0 KHz

* codec     : DTS 5.1
* bitrate   : 1 509 Kbps
* frequence : 48.0 KHz

----- Packing Info -----

* runtime   : 22min 08s 
* size      : 1.45 Gio
* pack      : 32x50mB

* link      : http://www.imdb.com/title/tt0976192/

* note      : Ain't dead, just sleepin' :)

Spectacular Spider Man.S01-S02.TRUEFRENCH.720p.WEB-DL.x264-FTMVHD

mot de passe : spider
Unique ID                      : 196764442138836358113733157861722269785 (0x940773FF0E216DFAA4F4F4946321A859)

Complete name                  : Spectacular Spider Man.S02E06.TRUEFRENCH.720p.WEB-DL.x264-FTMVHD.mkv

Format                         : Matroska

Format version                 : Version 4 / Version 2

File size                      : 291 MiB

Duration                       : 20 min 11 s

Overall bit rate               : 2 014 kb/s

Movie name                     : Spectacular Spider Man.S02E06.TRUEFRENCH.720p.WEB-DL.x264-FTMVHD

Encoded date                   : UTC 2017-11-28 11:11:14

Writing application            : mkvmerge v18.0.0 ('Apricity') 64-bit

Writing library                : libebml v1.3.5 + libmatroska v1.4.8



Video

ID                             : 1

Format                         : AVC

Format/Info                    : Advanced Video Codec

Format profile                 : High@L3.1

Format settings                : CABAC / 5 Ref Frames

Format settings, CABAC         : Yes

Format settings, ReFrames      : 5 frames

Codec ID                       : V_MPEG4/ISO/AVC

Duration                       : 20 min 11 s

Bit rate                       : 1 820 kb/s

Width                          : 1 280 pixels

Height                         : 720 pixels

Display aspect ratio           : 16:9

Frame rate mode                : Constant

Frame rate                     : 25.000 FPS

Color space                    : YUV

Chroma subsampling             : 4:2:0

Bit depth                      : 8 bits

Scan type                      : Progressive

Stream size                    : 263 MiB (90%)

Title                          : FTMV Te@m Since 2oo8 !!!

Writing library                : x264 core 152 r2851bm ba24899

Language                       : English

Default                        : Yes

Forced                         : No



Audio

ID                             : 2

Format                         : AC-3

Format/Info                    : Audio Coding 3

Codec ID                       : A_AC3

Duration                       : 20 min 11 s

Bit rate mode                  : Constant

Bit rate                       : 192 kb/s

Channel(s)                     : 2 channels

Channel positions              : Front: L R

Sampling rate                  : 48.0 kHz

Frame rate                     : 31.250 FPS (1536 SPF)

Bit depth                      : 16 bits

Compression mode               : Lossy

Delay relative to video        : 28 ms

Stream size                    : 27.7 MiB (10%)

Language                       : French

Service kind                   : Complete Main

Default                        : Yes

Forced                         : No



Text

ID                             : 3

Format                         : ASS

Codec ID                       : S_TEXT/ASS

Codec ID/Info                  : Advanced Sub Station Alpha

Duration                       : 2 s 700 ms

Bit rate                       : 325 b/s

Count of elements              : 2

Compression mode               : Lossless

Stream size                    : 110 Bytes (0%)

Language                       : French

Default                        : Yes

Forced                         : Yes