Neon Genesis Evangelion 720p/1080p MULTi


En 2000, une gigantesque explosion se produit en Antarctique, provoquant un cataclysme (raz-de-marée, fonte des calottes polaires) qui dévaste une grande partie de la planète. Les autorités déclarent que cette catastrophe était due à la chute d’un astéroïde sur la planète.
Quinze ans plus tard, l’humanité a surmonté cet événement, appelé le Second Impact. Mais de mystérieuses créatures nommées Anges font leur apparition, et tentent de détruire Tokyo-3, la nouvelle capitale forteresse du Japon, construite après le Second Impact. Pour les combattre, l’organisation secrète NERV a mis au point une arme ultime, l’Evangelion ou l’Eva, robot géant anthropoïde piloté.
Shinji Ikari, quatorze ans, se rend à Tokyo-3 sur invitation de son père, qu’il n’a pas revu depuis dix ans. Il est loin de se douter qu’il sera impliqué dans un conflit qui pourrait bien signifier la fin de l’humanité quoi qu’il arrive…

Neon.Genesis.Evangelion.MULTi.1080p.WEB.x264-AMB3R

mot de passe : neon
            db      `7MMM.     ,MMF'`7MM"""Yp,         `7MM"""Mq.           
           ;MM:       MMMb    dPMM    MM    Yb           MM   `MM.          
          ,V^MM.      M YM   ,M MM    MM    dP pd""b.    MM   ,M9           
         ,M  `MM      M  Mb  M' MM    MM"""bg.(O)  `8b   MMmmdM9            
         AbmmmqMA     M  YM.P'  MM    MM    `Y     ,89   MM  YM.            
        A'     VML    M  `YM'   MM    MM    ,9   ""Yb.   MM   `Mb.          
      .AMA.   .AMMA..JML. `'  .JMML..JMMmmmd9       88 .JMML. .JMM.         
                                              (O)  .M'                      
                                               bmmmd'                       
	PRESENT:         

+-----------------------------------------------------------------------+

	Neon.Genesis.Evangelion.E01.MULTi.1080p.WEB.x264-AMB3R 

	Release date   : 21/06/2019
	Source         : Netflix 

	Video          : x264 - Untouched 
	Bitrate        : 6 190 kb/s
	Resolution     : 1440x1080
	Frame rate     : 23.976 FPS

	Audio          : Fr / Jap E-AC-3 5.1 - Untouched
	Bit rate       : 640 kb/s 
	Sampling rate  : 48.0 kHz 
	Duration       : 23 min 37 s
	Size           : 1.22 GiB 
	Package        : 27 x 50 Mo

	Link: https://www.nautiljon.com/animes/neon+genesis+evangelion.html 

+-----------------------------------------------------------------------+

[DragsterPS] Neon Genesis Evangelion S01 [720p] [Multi-Audio] [Multi-Subs]

mot de passe : neon
Unique ID                                : 232283787645334634229914565202243353727 (0xAEC03AEFD74D4DFF700EA4201E59FC7F)
Complete name                            : [DragsterPS] Neon Genesis Evangelion S01E02 [720p] [Multi-Audio] [Multi-Subs] [916820BC].mkv
Format                                   : Matroska
Format version                           : Version 4 / Version 2
File size                                : 898 MiB
Duration                                 : 23 min 37 s
Overall bit rate mode                    : Variable
Overall bit rate                         : 5 312 kb/s
Encoded date                             : UTC 2019-06-21 09:50:24
Writing application                      : mkvmerge v32.0.0 ('Astral Progressions') 32-bit
Writing library                          : libebml v1.3.7 + libmatroska v1.5.0

Video
ID                                       : 1
Format                                   : AVC
Format/Info                              : Advanced Video Codec
Format profile                           : Main@L3.1
Format settings                          : CABAC / 3 Ref Frames
Format settings, CABAC                   : Yes
Format settings, ReFrames                : 3 frames
Codec ID                                 : V_MPEG4/ISO/AVC
Duration                                 : 23 min 37 s
Bit rate mode                            : Variable
Bit rate                                 : 2 260 kb/s
Maximum bit rate                         : 3 390 kb/s
Width                                    : 960 pixels
Height                                   : 720 pixels
Display aspect ratio                     : 4:3
Frame rate mode                          : Constant
Frame rate                               : 23.976 (24000/1001) FPS
Color space                              : YUV
Chroma subsampling                       : 4:2:0
Bit depth                                : 8 bits
Scan type                                : Progressive
Bits/(Pixel*Frame)                       : 0.136
Stream size                              : 377 MiB (42%)
Writing library                          : x264 core 148 r2715 7e75228
Encoding settings                        : cabac=1 / ref=3 / deblock=1:0:0 / analyse=0x1:0x111 / me=umh / subme=10 / psy=1 / psy_rd=1.00:0.00 / mixed_ref=1 / me_range=24 / chroma_me=1 / trellis=2 / 8x8dct=0 / cqm=0 / deadzone=21,11 / fast_pskip=1 / chroma_qp_offset=-2 / threads=8 / lookahead_threads=1 / sliced_threads=0 / nr=0 / decimate=1 / interlaced=0 / bluray_compat=0 / stitchable=1 / constrained_intra=0 / bframes=2 / b_pyramid=0 / b_adapt=2 / b_bias=0 / direct=3 / weightb=1 / open_gop=0 / weightp=2 / keyint=48 / keyint_min=25 / scenecut=0 / intra_refresh=0 / rc_lookahead=48 / rc=2pass / mbtree=1 / bitrate=2260 / ratetol=1.0 / qcomp=0.50 / qpmin=6 / qpmax=51 / qpstep=4 / cplxblur=20.0 / qblur=0.5 / vbv_maxrate=3390 / vbv_bufsize=4520 / nal_hrd=vbr / filler=0 / ip_ratio=1.40 / aq=1:1.00
Default                                  : Yes
Forced                                   : No

Audio #1
ID                                       : 2
Format                                   : AC-3
Format/Info                              : Audio Coding 3
Codec ID                                 : A_AC3
Duration                                 : 23 min 37 s
Bit rate mode                            : Constant
Bit rate                                 : 384 kb/s
Channel(s)                               : 6 channels
Channel positions                        : Front: L C R, Side: L R, LFE
Sampling rate                            : 48.0 kHz
Frame rate                               : 31.250 FPS (1536 SPF)
Bit depth                                : 16 bits
Compression mode                         : Lossy
Stream size                              : 64.9 MiB (7%)
Title                                    : English
Language                                 : English
Service kind                             : Complete Main
Default                                  : Yes
Forced                                   : No

Audio #2
ID                                       : 3
Format                                   : AC-3
Format/Info                              : Audio Coding 3
Codec ID                                 : A_AC3
Duration                                 : 23 min 37 s
Bit rate mode                            : Constant
Bit rate                                 : 384 kb/s
Channel(s)                               : 6 channels
Channel positions                        : Front: L C R, Side: L R, LFE
Sampling rate                            : 48.0 kHz
Frame rate                               : 31.250 FPS (1536 SPF)
Bit depth                                : 16 bits
Compression mode                         : Lossy
Stream size                              : 64.9 MiB (7%)
Title                                    : Castilian
Language                                 : Spanish
Service kind                             : Complete Main
Default                                  : No
Forced                                   : No

Audio #3
ID                                       : 4
Format                                   : AC-3
Format/Info                              : Audio Coding 3
Codec ID                                 : A_AC3
Duration                                 : 23 min 37 s
Bit rate mode                            : Constant
Bit rate                                 : 384 kb/s
Channel(s)                               : 6 channels
Channel positions                        : Front: L C R, Side: L R, LFE
Sampling rate                            : 48.0 kHz
Frame rate                               : 31.250 FPS (1536 SPF)
Bit depth                                : 16 bits
Compression mode                         : Lossy
Stream size                              : 64.9 MiB (7%)
Title                                    : Spanish
Language                                 : Spanish
Service kind                             : Complete Main
Default                                  : No
Forced                                   : No

Audio #4
ID                                       : 5
Format                                   : AC-3
Format/Info                              : Audio Coding 3
Codec ID                                 : A_AC3
Duration                                 : 23 min 37 s
Bit rate mode                            : Constant
Bit rate                                 : 384 kb/s
Channel(s)                               : 6 channels
Channel positions                        : Front: L C R, Side: L R, LFE
Sampling rate                            : 48.0 kHz
Frame rate                               : 31.250 FPS (1536 SPF)
Bit depth                                : 16 bits
Compression mode                         : Lossy
Stream size                              : 64.9 MiB (7%)
Title                                    : French
Language                                 : French
Service kind                             : Complete Main
Default                                  : No
Forced                                   : No

Audio #5
ID                                       : 6
Format                                   : AC-3
Format/Info                              : Audio Coding 3
Codec ID                                 : A_AC3
Duration                                 : 23 min 37 s
Bit rate mode                            : Constant
Bit rate                                 : 384 kb/s
Channel(s)                               : 6 channels
Channel positions                        : Front: L C R, Side: L R, LFE
Sampling rate                            : 48.0 kHz
Frame rate                               : 31.250 FPS (1536 SPF)
Bit depth                                : 16 bits
Compression mode                         : Lossy
Stream size                              : 64.9 MiB (7%)
Title                                    : German
Language                                 : German
Service kind                             : Complete Main
Default                                  : No
Forced                                   : No

Audio #6
ID                                       : 7
Format                                   : AC-3
Format/Info                              : Audio Coding 3
Codec ID                                 : A_AC3
Duration                                 : 23 min 37 s
Bit rate mode                            : Constant
Bit rate                                 : 384 kb/s
Channel(s)                               : 6 channels
Channel positions                        : Front: L C R, Side: L R, LFE
Sampling rate                            : 48.0 kHz
Frame rate                               : 31.250 FPS (1536 SPF)
Bit depth                                : 16 bits
Compression mode                         : Lossy
Stream size                              : 64.9 MiB (7%)
Title                                    : Italian
Language                                 : Italian
Service kind                             : Complete Main
Default                                  : No
Forced                                   : No

Audio #7
ID                                       : 8
Format                                   : AC-3
Format/Info                              : Audio Coding 3
Codec ID                                 : A_AC3
Duration                                 : 23 min 37 s
Bit rate mode                            : Constant
Bit rate                                 : 384 kb/s
Channel(s)                               : 6 channels
Channel positions                        : Front: L C R, Side: L R, LFE
Sampling rate                            : 48.0 kHz
Frame rate                               : 31.250 FPS (1536 SPF)
Bit depth                                : 16 bits
Compression mode                         : Lossy
Stream size                              : 64.9 MiB (7%)
Title                                    : Brazilian Portuguese
Language                                 : Portuguese
Service kind                             : Complete Main
Default                                  : No
Forced                                   : No

Audio #8
ID                                       : 9
Format                                   : AC-3
Format/Info                              : Audio Coding 3
Codec ID                                 : A_AC3
Duration                                 : 23 min 37 s
Bit rate mode                            : Constant
Bit rate                                 : 384 kb/s
Channel(s)                               : 6 channels
Channel positions                        : Front: L C R, Side: L R, LFE
Sampling rate                            : 48.0 kHz
Frame rate                               : 31.250 FPS (1536 SPF)
Bit depth                                : 16 bits
Compression mode                         : Lossy
Stream size                              : 64.9 MiB (7%)
Title                                    : Japanese
Language                                 : Japanese
Service kind                             : Complete Main
Default                                  : No
Forced                                   : No

Text #1
ID                                       : 10
Format                                   : UTF-8
Codec ID                                 : S_TEXT/UTF8
Codec ID/Info                            : UTF-8 Plain Text
Duration                                 : 18 min 29 s
Bit rate                                 : 2 b/s
Count of elements                        : 13
Stream size                              : 340 Bytes (0%)
Title                                    : English [Forced]
Language                                 : English
Default                                  : No
Forced                                   : Yes

Text #2
ID                                       : 11
Format                                   : UTF-8
Codec ID                                 : S_TEXT/UTF8
Codec ID/Info                            : UTF-8 Plain Text
Duration                                 : 23 min 24 s
Bit rate                                 : 56 b/s
Count of elements                        : 277
Stream size                              : 9.68 KiB (0%)
Title                                    : English [Full]
Language                                 : English
Default                                  : No
Forced                                   : No

Text #3
ID                                       : 12
Format                                   : UTF-8
Codec ID                                 : S_TEXT/UTF8
Codec ID/Info                            : UTF-8 Plain Text
Duration                                 : 20 min 8 s
Bit rate                                 : 2 b/s
Count of elements                        : 16
Stream size                              : 395 Bytes (0%)
Title                                    : Castilian [Forced]
Language                                 : Spanish
Default                                  : No
Forced                                   : Yes

Text #4
ID                                       : 13
Format                                   : UTF-8
Codec ID                                 : S_TEXT/UTF8
Codec ID/Info                            : UTF-8 Plain Text
Duration                                 : 21 min 47 s
Bit rate                                 : 49 b/s
Count of elements                        : 263
Stream size                              : 7.89 KiB (0%)
Title                                    : Castilian [Full]
Language                                 : Spanish
Default                                  : No
Forced                                   : No

Text #5
ID                                       : 14
Format                                   : UTF-8
Codec ID                                 : S_TEXT/UTF8
Codec ID/Info                            : UTF-8 Plain Text
Duration                                 : 20 min 8 s
Bit rate                                 : 2 b/s
Count of elements                        : 16
Stream size                              : 397 Bytes (0%)
Title                                    : Spanish [Forced]
Language                                 : Spanish
Default                                  : No
Forced                                   : Yes

Text #6
ID                                       : 15
Format                                   : UTF-8
Codec ID                                 : S_TEXT/UTF8
Codec ID/Info                            : UTF-8 Plain Text
Duration                                 : 21 min 47 s
Bit rate                                 : 54 b/s
Count of elements                        : 264
Stream size                              : 8.74 KiB (0%)
Title                                    : Spanish [Full]
Language                                 : Spanish
Default                                  : No
Forced                                   : No

Text #7
ID                                       : 16
Format                                   : UTF-8
Codec ID                                 : S_TEXT/UTF8
Codec ID/Info                            : UTF-8 Plain Text
Duration                                 : 19 min 19 s
Bit rate                                 : 2 b/s
Count of elements                        : 14
Stream size                              : 403 Bytes (0%)
Title                                    : French [Forced]
Language                                 : French
Default                                  : No
Forced                                   : Yes

Text #8
ID                                       : 17
Format                                   : UTF-8
Codec ID                                 : S_TEXT/UTF8
Codec ID/Info                            : UTF-8 Plain Text
Duration                                 : 21 min 46 s
Bit rate                                 : 56 b/s
Count of elements                        : 261
Stream size                              : 8.94 KiB (0%)
Title                                    : French [Full]
Language                                 : French
Default                                  : No
Forced                                   : No

Text #9
ID                                       : 18
Format                                   : UTF-8
Codec ID                                 : S_TEXT/UTF8
Codec ID/Info                            : UTF-8 Plain Text
Duration                                 : 20 min 8 s
Bit rate                                 : 2 b/s
Count of elements                        : 16
Stream size                              : 341 Bytes (0%)
Title                                    : German [Forced]
Language                                 : German
Default                                  : No
Forced                                   : Yes

Text #10
ID                                       : 19
Format                                   : UTF-8
Codec ID                                 : S_TEXT/UTF8
Codec ID/Info                            : UTF-8 Plain Text
Duration                                 : 21 min 47 s
Bit rate                                 : 58 b/s
Count of elements                        : 260
Stream size                              : 9.34 KiB (0%)
Title                                    : German [Full]
Language                                 : German
Default                                  : No
Forced                                   : No

Text #11
ID                                       : 20
Format                                   : UTF-8
Codec ID                                 : S_TEXT/UTF8
Codec ID/Info                            : UTF-8 Plain Text
Duration                                 : 19 min 54 s
Bit rate                                 : 2 b/s
Count of elements                        : 15
Stream size                              : 377 Bytes (0%)
Title                                    : Italian [Forced]
Language                                 : Italian
Default                                  : No
Forced                                   : Yes

Text #12
ID                                       : 21
Format                                   : UTF-8
Codec ID                                 : S_TEXT/UTF8
Codec ID/Info                            : UTF-8 Plain Text
Duration                                 : 21 min 46 s
Bit rate                                 : 55 b/s
Count of elements                        : 264
Stream size                              : 8.89 KiB (0%)
Title                                    : Italian [Full]
Language                                 : Italian
Default                                  : No
Forced                                   : No

Text #13
ID                                       : 22
Format                                   : UTF-8
Codec ID                                 : S_TEXT/UTF8
Codec ID/Info                            : UTF-8 Plain Text
Duration                                 : 21 min 47 s
Bit rate                                 : 50 b/s
Count of elements                        : 256
Stream size                              : 8.12 KiB (0%)
Title                                    : Portuguese [Full]
Language                                 : Portuguese
Default                                  : No
Forced                                   : No

Text #14
ID                                       : 23
Format                                   : UTF-8
Codec ID                                 : S_TEXT/UTF8
Codec ID/Info                            : UTF-8 Plain Text
Duration                                 : 20 min 8 s
Bit rate                                 : 2 b/s
Count of elements                        : 15
Stream size                              : 390 Bytes (0%)
Title                                    : Brazilian Portuguese [Forced]
Language                                 : Portuguese
Default                                  : No
Forced                                   : Yes

Text #15
ID                                       : 24
Format                                   : UTF-8
Codec ID                                 : S_TEXT/UTF8
Codec ID/Info                            : UTF-8 Plain Text
Duration                                 : 21 min 46 s
Bit rate                                 : 54 b/s
Count of elements                        : 265
Stream size                              : 8.72 KiB (0%)
Title                                    : Brazilian Portuguese [Full]
Language                                 : Portuguese
Default                                  : No
Forced                                   : No

Text #16
ID                                       : 25
Format                                   : UTF-8
Codec ID                                 : S_TEXT/UTF8
Codec ID/Info                            : UTF-8 Plain Text
Duration                                 : 21 min 47 s
Bit rate                                 : 47 b/s
Count of elements                        : 263
Stream size                              : 7.63 KiB (0%)
Title                                    : Polish [Full]
Language                                 : Polish
Default                                  : No
Forced                                   : No

Text #17
ID                                       : 26
Format                                   : UTF-8
Codec ID                                 : S_TEXT/UTF8
Codec ID/Info                            : UTF-8 Plain Text
Duration                                 : 21 min 47 s
Bit rate                                 : 56 b/s
Count of elements                        : 266
Stream size                              : 8.94 KiB (0%)
Title                                    : Turkish [Full]
Language                                 : Turkish
Default                                  : No
Forced                                   : No

Text #18
ID                                       : 27
Format                                   : UTF-8
Codec ID                                 : S_TEXT/UTF8
Codec ID/Info                            : UTF-8 Plain Text
Duration                                 : 21 min 46 s
Bit rate                                 : 52 b/s
Count of elements                        : 212
Stream size                              : 8.32 KiB (0%)
Title                                    : Swedish [Full]
Language                                 : Swedish
Default                                  : No
Forced                                   : No

Text #19
ID                                       : 28
Format                                   : UTF-8
Codec ID                                 : S_TEXT/UTF8
Codec ID/Info                            : UTF-8 Plain Text
Duration                                 : 21 min 46 s
Bit rate                                 : 49 b/s
Count of elements                        : 245
Stream size                              : 7.93 KiB (0%)
Title                                    : Danish [Full]
Language                                 : Danish
Default                                  : No
Forced                                   : No

Text #20
ID                                       : 29
Format                                   : UTF-8
Codec ID                                 : S_TEXT/UTF8
Codec ID/Info                            : UTF-8 Plain Text
Duration                                 : 21 min 47 s
Bit rate                                 : 46 b/s
Count of elements                        : 250
Stream size                              : 7.44 KiB (0%)
Title                                    : Finnish [Full]
Language                                 : Finnish
Default                                  : No
Forced                                   : No

Text #21
ID                                       : 30
Format                                   : UTF-8
Codec ID                                 : S_TEXT/UTF8
Codec ID/Info                            : UTF-8 Plain Text
Duration                                 : 21 min 46 s
Bit rate                                 : 44 b/s
Count of elements                        : 212
Stream size                              : 7.05 KiB (0%)
Title                                    : Dutch [Full]
Language                                 : Dutch
Default                                  : No
Forced                                   : No

Text #22
ID                                       : 31
Format                                   : UTF-8
Codec ID                                 : S_TEXT/UTF8
Codec ID/Info                            : UTF-8 Plain Text
Duration                                 : 21 min 47 s
Bit rate                                 : 55 b/s
Count of elements                        : 249
Stream size                              : 8.83 KiB (0%)
Title                                    : Norwegian [Full]
Language                                 : Norwegian
Default                                  : No
Forced                                   : No

Text #23
ID                                       : 32
Format                                   : UTF-8
Codec ID                                 : S_TEXT/UTF8
Codec ID/Info                            : UTF-8 Plain Text
Duration                                 : 21 min 46 s
Bit rate                                 : 81 b/s
Count of elements                        : 302
Stream size                              : 13.0 KiB (0%)
Title                                    : Russian [Full]
Language                                 : Russian
Default                                  : No
Forced                                   : No

Text #24
ID                                       : 33
Format                                   : UTF-8
Codec ID                                 : S_TEXT/UTF8
Codec ID/Info                            : UTF-8 Plain Text
Duration                                 : 21 min 50 s
Bit rate                                 : 95 b/s
Count of elements                        : 246
Stream size                              : 15.2 KiB (0%)
Title                                    : Greek [Full]
Language                                 : Greek
Default                                  : No
Forced                                   : No

Text #25
ID                                       : 34
Format                                   : UTF-8
Codec ID                                 : S_TEXT/UTF8
Codec ID/Info                            : UTF-8 Plain Text
Duration                                 : 21 min 46 s
Bit rate                                 : 85 b/s
Count of elements                        : 266
Stream size                              : 13.6 KiB (0%)
Title                                    : Hebrew [Full]
Language                                 : Hebrew
Default                                  : No
Forced                                   : No

Text #26
ID                                       : 35
Format                                   : UTF-8
Codec ID                                 : S_TEXT/UTF8
Codec ID/Info                            : UTF-8 Plain Text
Duration                                 : 21 min 47 s
Bit rate                                 : 94 b/s
Count of elements                        : 263
Stream size                              : 15.1 KiB (0%)
Title                                    : Arabic [Full]
Language                                 : Arabic
Default                                  : No
Forced                                   : No

Text #27
ID                                       : 36
Format                                   : UTF-8
Codec ID                                 : S_TEXT/UTF8
Codec ID/Info                            : UTF-8 Plain Text
Duration                                 : 21 min 47 s
Bit rate                                 : 53 b/s
Count of elements                        : 268
Stream size                              : 8.54 KiB (0%)
Title                                    : Romanian [Full]
Language                                 : Romanian
Default                                  : No
Forced                                   : No

Text #28
ID                                       : 37
Format                                   : UTF-8
Codec ID                                 : S_TEXT/UTF8
Codec ID/Info                            : UTF-8 Plain Text
Duration                                 : 21 min 47 s
Bit rate                                 : 52 b/s
Count of elements                        : 264
Stream size                              : 8.43 KiB (0%)
Title                                    : Indonesian [Full]
Language                                 : Indonesian
Default                                  : No
Forced                                   : No

Text #29
ID                                       : 38
Format                                   : UTF-8
Codec ID                                 : S_TEXT/UTF8
Codec ID/Info                            : UTF-8 Plain Text
Duration                                 : 21 min 47 s
Bit rate                                 : 126 b/s
Count of elements                        : 264
Stream size                              : 20.3 KiB (0%)
Title                                    : Thai [Full]
Language                                 : Thai
Default                                  : No
Forced                                   : No

Text #30
ID                                       : 39
Format                                   : UTF-8
Codec ID                                 : S_TEXT/UTF8
Codec ID/Info                            : UTF-8 Plain Text
Duration                                 : 23 min 2 s
Bit rate                                 : 50 b/s
Count of elements                        : 294
Stream size                              : 8.56 KiB (0%)
Title                                    : Korean [Full]
Language                                 : Korean
Default                                  : No
Forced                                   : No

Text #31
ID                                       : 40
Format                                   : UTF-8
Codec ID                                 : S_TEXT/UTF8
Codec ID/Info                            : UTF-8 Plain Text
Duration                                 : 21 min 48 s
Bit rate                                 : 47 b/s
Count of elements                        : 262
Stream size                              : 7.59 KiB (0%)
Title                                    : Chinese (Simplified) [Full]
Language                                 : Chinese
Default                                  : No
Forced                                   : No

Text #32
ID                                       : 41
Format                                   : UTF-8
Codec ID                                 : S_TEXT/UTF8
Codec ID/Info                            : UTF-8 Plain Text
Duration                                 : 21 min 47 s
Bit rate                                 : 44 b/s
Count of elements                        : 263
Stream size                              : 7.09 KiB (0%)
Title                                    : Chinese (Traditional) [Full]
Language                                 : Chinese
Default                                  : No
Forced                                   : No

Text #33
ID                                       : 42
Format                                   : UTF-8
Codec ID                                 : S_TEXT/UTF8
Codec ID/Info                            : UTF-8 Plain Text
Duration                                 : 23 min 19 s
Bit rate                                 : 84 b/s
Count of elements                        : 416
Stream size                              : 14.4 KiB (0%)
Title                                    : Japanese [SDH]
Language                                 : Japanese
Default                                  : No
Forced                                   : No

Neon.Genesis.Evangelion.Death.and.Rebirth.1997.MULTi.1080p.NF.WEB.DDP5.1.H264-NEO.mkv

mot de passe : neon
                                                                                                    
                                                                                                    
                                                                                                    
                                                                                                    
                                                                                                    
                                                                                                    
                                                                                                    
                                                                                                    
                                                                                                    
             ▒                      ▓▓░        ░░░░░░░░░░░░░░░░░▒                                   
            ▓██                    ▒██▒       ███████████████████▒      ▓██████████▓░               
            ████░                  ░██▒      ░███████████████████▒    ▓████████████████▓            
            ██████                 ░██▒      █████                  ▓███████████▓▓████████          
           ░███████░               ░██▒      █████                ░██████████▓▓▓  ░▒███████▒        
           ██████████              ░██▒      █████               ▒████████  ▒▒▓▒▓█░ ░ ░█████▓       
           ███████████▒            ░██▒     ░█████              ░█████▓█▓ ▒ ▒░     █  ███████▒      
           █████████████           ░██▒     ░█████              ██████ ▓ ▓▓         ░█████████      
          ▓██████▒▒██████░         ░██▒     ██████▓▓▓▓▓▓▓░     ░█████ ██▓            █▒  ▓████▒     
          ███████   ▓██████        ░██▒     █████████████▓     ▓████  ▒░              ░  ░████▓     
          ██████      ██████░      ░██▒     ██████             ▓████░ █              ░█ ██████▓     
         ▒█████▒        ██████     ░██▒     ██████             ▒█████ ▒              ▒ ░██████▓     
         ██████          ░█████░    ██▒     ██████              █████  ███▓            ▒██████      
         █████             ▒█████   ██▒     ██████              ▒█████▓█████▓       ▒█▓██████▓      
        ▒████░               ▓████  ██▒     ██████               ▓████████▓▒  ▒   ░▒▓▓███████       
        █████                  ███████▒     ██████                ▒█████████ ▒▒▒  ▒▓███████▓        
        ████                     █████▒     ██████                  ████████░█████████████          
        ███░                      ░███▒     ██████                    ▓█████████████████            
       ████                         ▒█▓     █████████████████████▒       ▒██████████▓               
       ▒░▒                                  ▒░▓▓█▓▒▓█▒█▒░█▓▓▒█▒░▒                                   
                                                      ░  ▓                                          

                                                      ░      ▒                                      
Général
Identifiant unique                       : 96653933176190986046225394349806799044 (0x48B6DED37F251047F8D51AD550D548C4)
Nom complet                              : Neon.Genesis.Evangelion.Death.and.Rebirth.1997.MULTi.1080p.NF.WEB.DDP5.1.H264-NEO.mkv
Format                                   : Matroska
Version du format                        : Version 4
Taille du fichier                        : 3,64 Gio
Durée                                    : 1 h 9 min
Type de débit global                     : Variable
Débit global moyen                       : 7 510 kb/s
Nom du film                              : EVANGELION: DEATH (TRUE)² 1998
Date d'encodage                          : UTC 2019-06-24 18:10:05
Application utilisée                     : mkvmerge v34.0.0 ('Sight and Seen') 32-bit
Bibliothèque utilisée                    : libebml v1.3.7 + libmatroska v1.5.0

Vidéo
ID                                       : 1
Format                                   : AVC
Format/Info                              : Advanced Video Codec
Profil du format                         : High@L4
Paramètres du format                     : CABAC / 4 Ref Frames
Paramètres du format, CABAC              : Oui
Paramètres du format, RefFrames          : 4 images
Identifiant du codec                     : V_MPEG4/ISO/AVC
Durée                                    : 1 h 9 min
Type de débit                            : Variable
Débit                                    : 6 228 kb/s
Débit maximum                            : 20,0 Mb/s
Largeur                                  : 1 920 pixels
Hauteur                                  : 1 080 pixels
Format à l'écran                         : 16/9
Type d'images/s                          : Constant
Images par seconde                       : 23,976 (24000/1001) Im/s
Espace de couleurs                       : YUV
Sous-échantillonnage de la chrominance   : 4:2:0
Profondeur des couleurs                  : 8 bits
Type de balayage                         : Progressif
Bits/(Pixel*Image)                       : 0.125
Taille du flux                           : 3,02 Gio (83%)
Titre                                    : Neon.Genesis.Evangelion.Death.and.Rebirth.1997.MULTi.1080p.NF.WEB.DDP5.1.H264-NEO
Bibliothèque utilisée                    : x264 core 148 r2715 7e75228
Paramètres d'encodage                    : cabac=1 / ref=4 / deblock=1:0:0 / analyse=0x3:0x111 / me=umh / subme=10 / psy=1 / psy_rd=1.00:0.00 / mixed_ref=1 / me_range=120 / chroma_me=1 / trellis=2 / 8x8dct=1 / cqm=0 / deadzone=21,11 / fast_pskip=1 / chroma_qp_offset=-2 / threads=8 / lookahead_threads=2 / sliced_threads=0 / nr=0 / decimate=1 / interlaced=0 / bluray_compat=0 / stitchable=1 / constrained_intra=0 / bframes=16 / b_pyramid=2 / b_adapt=2 / b_bias=0 / direct=3 / weightb=1 / open_gop=0 / weightp=2 / keyint=240 / keyint_min=121 / scenecut=0 / intra_refresh=0 / rc_lookahead=240 / rc=crf / mbtree=1 / crf=20.0 / qcomp=0.50 / qpmin=6 / qpmax=51 / qpstep=4 / vbv_maxrate=20000 / vbv_bufsize=25000 / crf_max=0.0 / nal_hrd=vbr / filler=0 / ip_ratio=1.40 / aq=1:0.80
Default                                  : Oui
Forced                                   : Non

Audio #1
ID                                       : 2
Format                                   : E-AC-3
Format/Info                              : Enhanced AC-3
Nom commercial                           : Dolby Digital Plus
Identifiant du codec                     : A_EAC3
Durée                                    : 1 h 9 min
Type de débit                            : Constant
Débit                                    : 640 kb/s
Canaux                                   : 6 canaux
Channel layout                           : L R C LFE Ls Rs
Echantillonnage                          : 48,0 kHz
Images par seconde                       : 31,250 Im/s (1536 SPF)
Mode de compression                      : Avec perte
Taille du flux                           : 317 Mio (9%)
Titre                                    : French
Langue                                   : Français
ServiceKind/String                       : Complete Main
Default                                  : Oui
Forced                                   : Non

Audio #2
ID                                       : 3
Format                                   : E-AC-3
Format/Info                              : Enhanced AC-3
Nom commercial                           : Dolby Digital Plus
Identifiant du codec                     : A_EAC3
Durée                                    : 1 h 9 min
Type de débit                            : Constant
Débit                                    : 640 kb/s
Canaux                                   : 6 canaux
Channel layout                           : L R C LFE Ls Rs
Echantillonnage                          : 48,0 kHz
Images par seconde                       : 31,250 Im/s (1536 SPF)
Mode de compression                      : Avec perte
Taille du flux                           : 317 Mio (9%)
Titre                                    : Japanese [Original]
Langue                                   : Japonais
ServiceKind/String                       : Complete Main
Default                                  : Non
Forced                                   : Non

Texte #1
ID                                       : 4
Format                                   : UTF-8
Identifiant du codec                     : S_TEXT/UTF8
Identifiant du codec/Info                : UTF-8 Plain Text
Durée                                    : 1 h 7 min
Débit                                    : 60 b/s
ElementCount                             : 813
Taille du flux                           : 30,0 Kio (0%)
Titre                                    : French
Langue                                   : Français
Default                                  : Non
Forced                                   : Non

Texte #2
ID                                       : 5
Format                                   : UTF-8
Identifiant du codec                     : S_TEXT/UTF8
Identifiant du codec/Info                : UTF-8 Plain Text
Durée                                    : 1 h 7 min
Débit                                    : 2 b/s
ElementCount                             : 57
Taille du flux                           : 1,33 Kio (0%)
Titre                                    : Forces
Langue                                   : Français
Default                                  : Oui
Forced                                   : Oui



Release :  Neon.Genesis.Evangelion.Death.and.Rebirth.1997.MULTi.1080p.NF.WEB.DDP5.1.H264-NEO
Source  :  NETFLIX 
		  
Imdb     : https://www.imdb.com/title/tt0169880/



REMERCIEMENTS : BlackFlag , CherryCoke , WEEDS