Black Lagoon 720p/1080p MULTi


Okajima Rokuro, surnommé Rock, est un jeune employé d’une firme Japonaise : Asahi Industrial. Il y mène une vie monotone. Cependant, sa vie d’employé va soudain basculée lorsqu’il sera pris en otage par l’équipage du Black Lagoon, qui sont là pour lui prendre la disquette dont il était responsable. Rock sera abandonné par ses patrons, il décidera de se joindre à l’équipage en tant que matelot. C’est ainsi que Rock, rejoint Rebby, Dutch et Benny.

Black.Lagoon.S01-S02.MULTi.1080p.BluRay.x264-KAZETV

mot de passe : lagoon
KAZETV brings to you :

Black.Lagoon.S01E12.FiNAL.MULTi.1080p.BluRay.x264-KAZETV

---- Video Info ----

* codec      : X264
* pass       : 2 pass
* framerate  : 23.976 fps
* resolution : 1920x1080

---- Audio Info ----

* track     : Japanese / French
* subtitle  : French   / French Forced

* codec     : AC3 2.0
* bitrate   : 448 Kbps
* frequence : 48.0 KHZ

---- Packing Info ----

* runtime   : 23min 27s
* size      : 1.45 Gio
* pack      : 32x50mB

* link      : http://www.animeka.com/animes/detail/black-lagoon.html

* note      : Greetz a la foret qui dort, la pierre brillante, au poisson cru et au soleil levant.
KAZETV brings to you :

Black.Lagoon.S02E12.FiNAL.MULTi.1080p.BluRay.x264-KAZETV

---- Video Info ----

* codec      : X264
* pass       : 2 pass
* framerate  : 23.976 fps
* resolution : 1920x1080

---- Audio Info ----

* track     : Japanese / French
* subtitle  : French   / French Forced

* codec     : AC3 2.0
* bitrate   : 448 Kbps
* frequence : 48.0 KHZ

---- Packing Info ----

* runtime   : 23min 27s
* size      : 1.45 Gio
* pack      : 32x50mB

* link      : http://www.animeka.com/animes/detail/black-lagoon-the-second-barrage.html

* note      : Greetz a la foret qui dort, la pierre brillante, au poisson cru et au soleil levant.

Black.Lagoon.S01-S02.FRENCH.720p.BluRay.x264-KAZETV

mot de passe : lagoon
KAZETV brings to you :

Black.Lagoon.S01E01.FRENCH.720p.BluRay.x264-KAZETV

---- Video Info ----

* codec      : X264
* pass       : 2 pass
* framerate  : 23.976 fps
* resolution : 1280x720

---- Audio Info ----

* track     : French
* subtitle  : French Forced

* codec     : AC3 2.0
* bitrate   : 448 Kbps
* frequence : 48.0 KHZ

---- Packing Info ----

* runtime   : 23min 27s
* size      : 743 Mio
* pack      : 16x50mB

* link      : http://www.animeka.com/animes/detail/black-lagoon.html

* note      : Greetz a la foret qui dort, la pierre brillante, au poisson cru et au soleil levant.
KAZETV brings to you :

Black.Lagoon.S02E01.FRENCH.720p.BluRay.x264-KAZETV

---- Video Info ----

* codec      : X264
* pass       : 2 pass
* framerate  : 23.976 fps
* resolution : 1280x720

---- Audio Info ----

* track     : French
* subtitle  : French Forced

* codec     : AC3 2.0
* bitrate   : 448 Kbps
* frequence : 48.0 KHZ

---- Packing Info ----

* runtime   : 23min 27s
* size      : 743 Mio
* pack      : 16x50mB

* link      : http://www.animeka.com/animes/detail/black-lagoon-the-second-barrage.html

* note      : Greetz a la foret qui dort, la pierre brillante, au poisson cru et au soleil levant.

Black.Lagoon.Robertas.Blood.Trail.01-05.MULTi.1080p.x264

mot de passe : lagoon
Unique ID                   : 205567921500403302932443979208880326464 (0x9AA6F10A3A344FE0AC6F7DF6D4C88740)
Complete name               : Black.Lagoon.Robertas.Blood.Trail.01.MULTi.1080p.x264.mkv
Format                      : Matroska
Format version              : Version 4
File size                   : 1.38 GiB
Duration                    : 35 min 31 s
Overall bit rate mode       : Variable
Overall bit rate            : 5 555 kb/s
Movie name                  : Manga - Black Lagoon #01- S01-E1
Encoded date                : UTC 2017-10-23 21:00:11
Writing application         : mkvmerge v17.0.0 ('Be Ur Friend') 64-bit
Writing library             : libebml v1.3.5 + libmatroska v1.4.8
IsTruncated                 : Yes

Video
ID                          : 1
Format                      : AVC
Format/Info                 : Advanced Video Codec
Format profile              : High@L5
Format settings             : CABAC / 5 Ref Frames
Format settings, CABAC      : Yes
Format settings, Reference  : 5 frames
Codec ID                    : V_MPEG4/ISO/AVC
Duration                    : 34 min 19 s
Bit rate                    : 3 524 kb/s
Width                       : 1 920 pixels
Height                      : 1 080 pixels
Display aspect ratio        : 16:9
Frame rate mode             : Constant
Frame rate                  : 23.976 (24000/1001) FPS
Color space                 : YUV
Chroma subsampling          : 4:2:0
Bit depth                   : 8 bits
Scan type                   : Progressive
Bits/(Pixel*Frame)          : 0.071
Stream size                 : 865 MiB (61%)
Writing library             : x264 core 148 r2638 7599210
Encoding settings           : cabac=1 / ref=5 / deblock=1:1:1 / analyse=0x3:0x113 / me=umh / subme=9 / psy=1 / psy_rd=0.70:0.00 / mixed_ref=1 / me_range=32 / chroma_me=1 / trellis=0 / 8x8dct=1 / cqm=0 / deadzone=21,11 / fast_pskip=0 / chroma_qp_offset=-2 / threads=12 / lookahead_threads=1 / sliced_threads=0 / nr=0 / decimate=1 / interlaced=0 / bluray_compat=0 / constrained_intra=0 / bframes=3 / b_pyramid=2 / b_adapt=2 / b_bias=0 / direct=1 / weightb=1 / open_gop=0 / weightp=2 / keyint=240 / keyint_min=23 / scenecut=40 / intra_refresh=0 / rc_lookahead=40 / rc=crf / mbtree=1 / crf=17.0 / qcomp=0.60 / qpmin=0 / qpmax=69 / qpstep=4 / ip_ratio=1.40 / aq=1:1.00
Language                    : French
Default                     : Yes
Forced                      : No

Audio #1
ID                          : 2
Format                      : PCM
Format settings             : Little / Signed
Codec ID                    : A_PCM/INT/LIT
Duration                    : 35 min 30 s
Bit rate mode               : Constant
Bit rate                    : 1 536 kb/s
Channel(s)                  : 2 channels
Sampling rate               : 48.0 kHz
Frame rate                  : 32.000 FPS (1500 SPF)
Bit depth                   : 16 bits
Delay relative to video     : 1 s 33 ms
Stream size                 : 390 MiB (28%)
Language                    : French
Default                     : Yes
Forced                      : No

Audio #2
ID                          : 3
Format                      : FLAC
Format/Info                 : Free Lossless Audio Codec
Codec ID                    : A_FLAC
Duration                    : 34 min 19 s
Bit rate mode               : Variable
Bit rate                    : 624 kb/s
Channel(s)                  : 2 channels
Channel layout              : L R
Sampling rate               : 48.0 kHz
Frame rate                  : 11.719 FPS (4096 SPF)
Bit depth                   : 16 bits
Compression mode            : Lossless
Stream size                 : 153 MiB (11%)
Writing library             : libFLAC 1.3.1 (UTC 2014-11-25)
Language                    : Japanese
Default                     : No
Forced                      : No

Text #1
ID                          : 4
Format                      : PGS
Muxing mode                 : zlib
Codec ID                    : S_HDMV/PGS
Codec ID/Info               : Picture based subtitle format used on BDs/HD-DVDs
Duration                    : 32 min 49 s
Bit rate                    : 29.1 kb/s
Count of elements           : 912
Stream size                 : 6.84 MiB (0%)
Language                    : French
Default                     : No
Forced                      : No

Text #2
ID                          : 5
Format                      : PGS
Muxing mode                 : zlib
Codec ID                    : S_HDMV/PGS
Codec ID/Info               : Picture based subtitle format used on BDs/HD-DVDs
Duration                    : 32 min 49 s
Bit rate                    : 478 b/s
Count of elements           : 10
Stream size                 : 115 KiB (0%)
Language                    : French
Default                     : Yes
Forced                      : No

Menu
00:00:00.000                : en:(01)00:00:00:000
00:01:30.006                : en:(02)00:01:30:006
00:13:25.721                : en:(03)00:13:25:721
00:32:59.602                : en:(04)00:32:59:602
00:34:02.165                : en:(05)00:34:02:165
00:34:19.015                : en:(06)00:34:19:015