Haibane Renmei (Ailes Grises) 1080p MULTi


Une jeune fille tombe du ciel… Lorsqu’elle se réveille, elle se retrouve dans une sorte de cocon, dont elle émerge finalement pour se retrouver face à petit groupe de filles dotées d’ailes et d’une auréole. C’est ainsi que Rakka rejoint la communauté des Ailes-Grises, des êtres à l’apparence angélique qui vivent en harmonie avec les humains dans une ville oubliée du temps, entourée de hautes murailles. Petit à petit, Rakka va découvrir son nouvel environnement. Mais des questions continuent à la hanter. Qui sont vraiment les Ailes-Grises ? D’où viennent-ils ? Et surtout, qu’est-ce qui se trouve au-delà des murailles, là où seuls les oiseaux peuvent aller ?

Haibane.Renmei.MULTi.1080p.8bit.BluRay.x264-raton

mot de passe : ailes
Unique ID                   : 210751396680062795642265751944541607590 (0x9E8D3E18FC6C7764A895CF26AE6D96A6)
Complete name               : Haibane.Renmei.E01.MULTi.1080p.8bit.BluRay.x264-raton.mkv
Format                      : Matroska
Format version              : Version 4
File size                   : 1.32 GiB
Duration                    : 22 min 58 s
Overall bit rate mode       : Variable
Overall bit rate            : 8 209 kb/s
Encoded date                : UTC 2019-08-15 08:38:17
Writing application         : mkvmerge v35.0.0 ('All The Love In The World') 64-bit
Writing library             : libebml v1.3.9 + libmatroska v1.5.2

Video
ID                          : 1
Format                      : AVC
Format/Info                 : Advanced Video Codec
Format profile              : High@L4.1
Format settings             : CABAC / 4 Ref Frames
Format settings, CABAC      : Yes
Format settings, Reference  : 4 frames
Codec ID                    : V_MPEG4/ISO/AVC
Duration                    : 22 min 58 s
Bit rate                    : 7 500 kb/s
Width                       : 1 920 pixels
Height                      : 1 080 pixels
Display aspect ratio        : 16:9
Frame rate mode             : Constant
Frame rate                  : 23.976 (24000/1001) FPS
Color space                 : YUV
Chroma subsampling          : 4:2:0
Bit depth                   : 8 bits
Scan type                   : Progressive
Bits/(Pixel*Frame)          : 0.151
Stream size                 : 1.20 GiB (91%)
Writing library             : x264 core 157 r2935 545de2f
Encoding settings           : cabac=1 / ref=4 / deblock=1:1:1 / analyse=0x3:0x113 / me=hex / subme=7 / psy=1 / psy_rd=0.40:0.00 / mixed_ref=1 / me_range=16 / chroma_me=1 / trellis=1 / 8x8dct=1 / cqm=0 / deadzone=21,11 / fast_pskip=1 / chroma_qp_offset=-2 / threads=12 / lookahead_threads=2 / sliced_threads=0 / nr=0 / decimate=1 / interlaced=0 / bluray_compat=0 / constrained_intra=0 / bframes=5 / b_pyramid=2 / b_adapt=1 / b_bias=0 / direct=1 / weightb=1 / open_gop=0 / weightp=2 / keyint=240 / keyint_min=24 / scenecut=40 / intra_refresh=0 / rc_lookahead=40 / rc=2pass / mbtree=1 / bitrate=7500 / ratetol=1.0 / qcomp=0.60 / qpmin=0 / qpmax=69 / qpstep=4 / cplxblur=20.0 / qblur=0.5 / vbv_maxrate=62500 / vbv_bufsize=78125 / nal_hrd=none / filler=0 / ip_ratio=1.40 / aq=1:0.60
Default                     : Yes
Forced                      : No
Color range                 : Limited
Color primaries             : BT.709
Transfer characteristics    : BT.709
Matrix coefficients         : BT.709

Audio #1
ID                          : 2
Format                      : AAC LC
Format/Info                 : Advanced Audio Codec Low Complexity
Codec ID                    : A_AAC-2
Duration                    : 22 min 55 s
Bit rate                    : 196 kb/s
Channel(s)                  : 2 channels
Channel layout              : L R
Sampling rate               : 48.0 kHz
Frame rate                  : 46.875 FPS (1024 SPF)
Compression mode            : Lossy
Stream size                 : 32.1 MiB (2%)
Language                    : French
Default                     : Yes
Forced                      : No

Audio #2
ID                          : 3
Format                      : FLAC
Format/Info                 : Free Lossless Audio Codec
Codec ID                    : A_FLAC
Duration                    : 22 min 58 s
Bit rate mode               : Variable
Bit rate                    : 509 kb/s
Channel(s)                  : 2 channels
Channel layout              : L R
Sampling rate               : 48.0 kHz
Frame rate                  : 11.719 FPS (4096 SPF)
Bit depth                   : 16 bits
Compression mode            : Lossless
Stream size                 : 83.6 MiB (6%)
Writing library             : libFLAC 1.2.1 (UTC 2007-09-17)
Language                    : Japanese
Default                     : No
Forced                      : No

Text #1
ID                          : 4
Format                      : ASS
Codec ID                    : S_TEXT/ASS
Codec ID/Info               : Advanced Sub Station Alpha
Duration                    : 1 min 45 s
Bit rate                    : 9 b/s
Count of elements           : 2
Compression mode            : Lossless
Stream size                 : 126 Bytes (0%)
Title                       : Forced FR
Language                    : French
Default                     : Yes
Forced                      : Yes

Text #2
ID                          : 5
Format                      : ASS
Codec ID                    : S_TEXT/ASS
Codec ID/Info               : Advanced Sub Station Alpha
Duration                    : 21 min 1 s
Bit rate                    : 83 b/s
Count of elements           : 203
Compression mode            : Lossless
Stream size                 : 12.9 KiB (0%)
Language                    : French
Default                     : No
Forced                      : No