Shaman King 480p DVDRip VF


Alors qu’il traverse un cimetière pour prendre un raccourci, le jeune lycéen Oyamada Manta découvre qu’il a la faculté de voir et d’entendre les fantômes qui n’ont pas encore rejoint l’au-delà. Sa surprise ne s’arrête pas là, puisqu’il fait à cette occasion, la connaissance de Asakura Yoh, un autre jeune garçon à l’allure nonchalante qui se révèle être un Shaman. L’effet de surprise passé, Manta accepte ses nouvelles facultés sensorielles et devient le compagnon de Yoh. Les aptitudes de Yoh lui permettent de communiquer avec les esprits et de les aider lorsqu’ils en ont besoin: en leur prêtant son enveloppe charnelle, Yoh acquiert leurs pouvoirs et leur offre parfois la possibilité d’accomplir un acte dont la mort les a privés.

C’est ainsi qu’il va redonner confiance à un jeune boxeur que la mort de son entraîneur avait plongé dans la débauche et la délinquance. Yoh est donc celui qui vole au secours des âmes en peine. Son but est de devenir un jour Shaman King, ce shaman si particulier capable d’entrer dans une communion parfaite avec la nature et ses esprits. C’est un don unique et très convoité. Pour y parvenir, il devra s’entraîner dur et affronter d’autres Shamans et leurs esprits dont les motivations ne sont pas aussi nobles. Dans sa quête, Yoh est assisté par Amidamaru, un esprit qui fut autrefois un samouraï craint et respecté. Touché par la pureté des intentions de Yoh, Amidamaru a décidé de se mettre à son service et de ne pas regagner l’au-delà. C’est le début d’une grande amitié entre un jeune Shaman de 13 ans et un esprit de plus 600 ans !!!

Shaman.King.2001.iNTEGRALE.FRENCH.DVDRip.XviD-ED

mot de passe : shaman
Format                                   : AVI
Format/Info                              : Audio Video Interleave
File size                                : 202 MiB
Duration                                 : 19mn 27s
Overall bit rate                         : 1 452 Kbps
Writing application                      : VirtualDubMod 1.5.4.1 (build 2117/release)
Writing library                          : VirtualDubMod build 2117/release

Video
ID                                       : 0
Format                                   : MPEG-4 Visual
Format settings, BVOP                    : 1
Format settings, QPel                    : No
Format settings, GMC                     : 2 warppoints
Format settings, Matrix                  : Default (H.263)
Muxing mode                              : Packed bitstream
Duration                                 : 19mn 27s
Bit rate                                 : 1 314 Kbps
Width                                    : 624 pixels
Height                                   : 472 pixels
Display aspect ratio                     : 4:3
Frame rate                               : 25.000 fps
Color space                              : YUV
Chroma subsampling                       : 4:2:0
Bit depth                                : 8 bits
Scan type                                : Progressive
Compression mode                         : Lossy
Bits/(Pixel*Frame)                       : 0.178
Stream size                              : 183 MiB (91%)

Audio
ID                                       : 1
Format                                   : MPEG Audio
Format version                           : Version 1
Format profile                           : Layer 3
Mode                                     : Joint stereo
Mode extension                           : MS Stereo
Codec ID                                 : 55
Codec ID/Hint                            : MP3
Duration                                 : 19mn 27s
Bit rate mode                            : Constant
Bit rate                                 : 128 Kbps
Channel(s)                               : 2 channels
Sampling rate                            : 48.0 KHz
Compression mode                         : Lossy
Stream size                              : 17.8 MiB (9%)
Alignment                                : Aligned on interleaves
Interleave, duration                     : 40 ms (1.00 video frame)
Interleave, preload duration             : 504 ms
Writing library                          : LAME3.96r
Encoding settings                        : -m j -V 4 -q 2 -lowpass 17.5 -b 128