Marvel Super Hero Adventures 1080p VF


Grâce à l’animation et à la publication, cette série offre aux jeunes enfants une porte d’entrée dans l’univers Marvel que les adultes adorent déjà. Les épisodes mettent en vedette Spidey dans une équipe épique avec d’autres héros Marvel inspirants et courageux comme Iron Man, Thor, Hulk, Captain America, Ant-Man, Black Panther, Captain Marvel, Wasp, Miss Marvel et plus encore.

Marvel Super Hero Adventures.S01.TRUEFRENCH.1080p.WEB-DL.x264-FTMVHD

mot de passe : marvel
Unique ID                      : 210223985768312870204056682606196357371 (0x9E27AABB65D40321CD28319E1EB6F8FB)

Complete name                  : Marvel Super Hero Adventures.S01E01.TRUEFRENCH.1080p.WEB-DL.x264-FTMVHD.mkv

Format                         : Matroska

Format version                 : Version 4

File size                      : 127 MiB

Duration                       : 3 min 23 s

Overall bit rate               : 5 213 kb/s

Movie name                     : Marvel Super Hero Adventures.S01E01.TRUEFRENCH.1080p.WEB-DL.x264-FTMVHD

Encoded date                   : UTC 2019-08-06 18:05:15

Writing application            : mkvmerge v34.0.0 ('Sight and Seen') 64-bit

Writing library                : libebml v1.3.7 + libmatroska v1.5.0



Video

ID                             : 1

Format                         : AVC

Format/Info                    : Advanced Video Codec

Format profile                 : High@L4.1

Format settings                : CABAC / 4 Ref Frames

Format settings, CABAC         : Yes

Format settings, Reference fra : 4 frames

Codec ID                       : V_MPEG4/ISO/AVC

Duration                       : 3 min 23 s

Bit rate                       : 5 019 kb/s

Width                          : 1 920 pixels

Height                         : 1 080 pixels

Display aspect ratio           : 16:9

Frame rate mode                : Constant

Frame rate                     : 25.000 FPS

Color space                    : YUV

Chroma subsampling             : 4:2:0

Bit depth                      : 8 bits

Scan type                      : Progressive

Stream size                    : 122 MiB (96%)

Title                          : 1080p WEB-DL US (TVSmash)

Writing library                : x264 core 152 r2851bm ba24899

Language                       : English

Default                        : Yes

Forced                         : No



Audio

ID                             : 2

Format                         : AC-3

Format/Info                    : Audio Coding 3

Commercial name                : Dolby Digital

Codec ID                       : A_AC3

Duration                       : 3 min 23 s

Bit rate mode                  : Constant

Bit rate                       : 192 kb/s

Channel(s)                     : 2 channels

Channel layout                 : L R

Sampling rate                  : 48.0 kHz

Frame rate                     : 31.250 FPS (1536 SPF)

Bit depth                      : 16 bits

Compression mode               : Lossy

Stream size                    : 4.67 MiB (4%)

Title                          : AC3 2.0 Disney XD FR (FTMVHD)

Language                       : French

Service kind                   : Complete Main

Default                        : Yes

Forced                         : No