Hellsing Ultimate 720p/1080p MULTi & VOSTFR


Angleterre, Londres, de nos jours. Pour combattre les forces obscures existe depuis plusieurs générations l’ordre de chevalier de l’église protestante, l’organisation Hellsing. Cette fédération invisible au grand jour s’occupe de l’éradication des non-morts, les goules, les vampires. A sa tête se trouve Integral Fairbook Wingates Hellsing, qui gère d’une main de fer toutes les affaires paranormales possibles. Cependant, ces temps-ci, le nombre de goules augmentent inexorablement, des vampires de basse classe, qui n’ont aucun objectif ni libre arbitre. Sur ceux-ci, ont retrouve une puce électronique. Etrange…Ces goules survivent même lorsque le « vampire générateur » est détruit, ce qui démontre que l’être à la tête de ce projet macabre doit avoir une nature humaine. Les incidents se multiplient, ils se propagent hors de la terre anglicane.
Qui désirerait noyer le monde dans le sang et la décadence, savourer les délices de la guerre d’une manière infinie ? Qui oserait se prétendre à un titre aussi noir ? Une certaine organisation : Millenium. Millenium peut signifier au sens propre mille ans mais aussi L’Empire millenium, celui qui a précipité le monde dans une guerre sanglante pour s’assurer mille ans de gloire : les nazis, Le IIIème Reich. La faim d’une puissance absolue les a poussé à créer des monstres, une armée entière de monstres plus meurtriers et violents que l’on ne pourrait jamais imaginer. On les croyait disparu depuis un demi-siècle, malheureusement, se n’était qu’une petite période de repos entre-temps. Le cauchemar ne fait en réalité que de commencer, tout n’était qu’un simple préliminaire…
L’organisation Hellsing combat le mal par le mal. Leur carte maîtresse ? Un vampire surpuissant issu d’un siècle de « travaux acharnés ». Son nom : Alucard. A côté, le Vatican ne peut rester sans agir : faire d’une pierre deux coups, éradiquer de la surface de la planète le IIIème Reich et sa horde de non-morts et par la même occasion les hérétiques protestants… La valse sanglante peut ainsi commencer, elle ne s’arrêtera que lorsque la dernière note sera jouée…

Hellsing.Ultimate.OAV.01-04.MULTi.[1080p-AC3]

mot de passe : hellsing
Unique ID                   : 176643141949044949854558908549930404182 (0x84E43B4DBE7E6BA68F86F7F30F3FC956)
Complete name               : Hellsing_Ultimate_-_01_-_[1080p-AC3].mkv
Format                      : Matroska
Format version              : Version 4
File size                   : 1.82 GiB
Duration                    : 50 min 19 s
Overall bit rate            : 5 165 kb/s
Encoded date                : UTC 2018-01-20 15:42:16
Writing application         : mkvmerge v20.0.0 ('I Am The Sun') 64-bit
Writing library             : libebml v1.3.5 + libmatroska v1.4.8
Attachments                 : jesaya free.ttf

Video
ID                          : 1
Format                      : AVC
Format/Info                 : Advanced Video Codec
Format profile              : High@L4.1
Format settings             : CABAC / 4 Ref Frames
Format settings, CABAC      : Yes
Format settings, Reference  : 4 frames
Codec ID                    : V_MPEG4/ISO/AVC
Duration                    : 50 min 18 s
Bit rate                    : 3 436 kb/s
Width                       : 1 920 pixels
Height                      : 1 080 pixels
Display aspect ratio        : 16:9
Frame rate mode             : Constant
Frame rate                  : 23.976 (24000/1001) FPS
Color space                 : YUV
Chroma subsampling          : 4:2:0
Bit depth                   : 8 bits
Scan type                   : Progressive
Bits/(Pixel*Frame)          : 0.069
Stream size                 : 1.21 GiB (67%)
Title                       : H.264/AVC Video
Writing library             : x264 core 142 r2431 ac76440
Encoding settings           : cabac=1 / ref=4 / deblock=1:-1:-1 / analyse=0x3:0x113 / me=umh / subme=10 / psy=1 / psy_rd=1.00:0.00 / mixed_ref=1 / me_range=64 / chroma_me=1 / trellis=2 / 8x8dct=1 / cqm=0 / deadzone=21,11 / fast_pskip=1 / chroma_qp_offset=-2 / threads=12 / lookahead_threads=1 / sliced_threads=0 / nr=0 / decimate=1 / interlaced=0 / bluray_compat=0 / constrained_intra=0 / bframes=4 / b_pyramid=2 / b_adapt=2 / b_bias=0 / direct=3 / weightb=1 / open_gop=0 / weightp=2 / keyint=240 / keyint_min=23 / scenecut=40 / intra_refresh=0 / rc_lookahead=72 / rc=crf / mbtree=1 / crf=16.0 / qcomp=0.60 / qpmin=10 / qpmax=51 / qpstep=4 / ip_ratio=1.40 / aq=1:1.00
Language                    : Japanese
Default                     : No
Forced                      : No

Audio #1
ID                          : 2
Format                      : AC-3
Format/Info                 : Audio Coding 3
Commercial name             : Dolby Digital
Codec ID                    : A_AC3
Duration                    : 50 min 19 s
Bit rate mode               : Constant
Bit rate                    : 640 kb/s
Channel(s)                  : 6 channels
Channel layout              : L R C LFE Ls Rs
Sampling rate               : 48.0 kHz
Frame rate                  : 31.250 FPS (1536 SPF)
Bit depth                   : 16 bits
Compression mode            : Lossy
Stream size                 : 230 MiB (12%)
Title                       : English: 5.1ch (AC3 640Kbps)
Language                    : English
Service kind                : Complete Main
Default                     : No
Forced                      : No

Audio #2
ID                          : 3
Format                      : AC-3
Format/Info                 : Audio Coding 3
Commercial name             : Dolby Digital
Codec ID                    : A_AC3
Duration                    : 50 min 18 s
Bit rate mode               : Constant
Bit rate                    : 640 kb/s
Channel(s)                  : 6 channels
Channel layout              : L R C LFE Ls Rs
Sampling rate               : 48.0 kHz
Frame rate                  : 31.250 FPS (1536 SPF)
Bit depth                   : 16 bits
Compression mode            : Lossy
Stream size                 : 230 MiB (12%)
Title                       : Japanese: 5.1ch (AC3 640Kbps)
Language                    : Japanese
Service kind                : Complete Main
Default                     : No
Forced                      : No

Audio #3
ID                          : 4
Format                      : AC-3
Format/Info                 : Audio Coding 3
Commercial name             : Dolby Digital
Codec ID                    : A_AC3
Duration                    : 50 min 19 s
Bit rate mode               : Constant
Bit rate                    : 256 kb/s
Channel(s)                  : 2 channels
Channel layout              : L R
Sampling rate               : 48.0 kHz
Frame rate                  : 31.250 FPS (1536 SPF)
Bit depth                   : 16 bits
Compression mode            : Lossy
Stream size                 : 92.1 MiB (5%)
Title                       : English Commentary (AC3 256Kbps)
Language                    : English
Service kind                : Complete Main
Default                     : No
Forced                      : No

Audio #4
ID                          : 5
Format                      : AC-3
Format/Info                 : Audio Coding 3
Commercial name             : Dolby Digital
Codec ID                    : A_AC3
Duration                    : 50 min 4 s
Bit rate mode               : Constant
Bit rate                    : 192 kb/s
Channel(s)                  : 2 channels
Channel layout              : L R
Sampling rate               : 44.1 kHz
Frame rate                  : 28.711 FPS (1536 SPF)
Bit depth                   : 16 bits
Compression mode            : Lossy
Delay relative to video     : 34 ms
Stream size                 : 68.8 MiB (4%)
Title                       : Francais: 5.1ch (AC3 640Kbps)
Language                    : French
Service kind                : Complete Main
Default                     : Yes
Forced                      : No

Text
ID                          : 6
Format                      : UTF-8
Codec ID                    : S_TEXT/UTF8
Codec ID/Info               : UTF-8 Plain Text
Duration                    : 47 min 10 s
Bit rate                    : 44 b/s
Count of elements           : 404
Stream size                 : 15.3 KiB (0%)
Title                       : Francais
Language                    : French
Default                     : No
Forced                      : No

Hellsing.Ultimate.OAV.01-10.SUBFRENCH.1080p.BluRay.x264-KAZETV

Hellsing.Ultimate.The.Dawn.01-03.VOSTFR-ENG.1080p.BluRay.x264-nirvanaj

mot de passe : hellsing
KAZETV brings to you :

Hellsing.Ultimate.OAV01.SUBFRENCH.1080p.BluRay.x264-KAZETV

---- Video Info ----

* codec      : X264
* pass       : 2 pass
* framerate  : 23.976 fps
* resolution : 1920x1080

---- Audio Info ----

* track     : Japanese
* subtitle  : French

* codec     : DTS 5.1
* bitrate   : 768 Kbps
* frequence : 48.0 KHZ

---- Packing Info ----

* runtime   : 50min 19s
* size      : 4.37 Gio
* pack      : 94x50mB

* link      : https://www.animeka.com/animes/detail/hellsing-ultimate.html

* note      : Greetz a la foret qui dort, la pierre brillante, au dieu de la mort et au soleil levant.
Unique ID                   : 206160484161247859219736559993818945004 (0x9B1910A27FF9C39AB09C3FA0E7C395EC)
Complete name               : Hellsing.Ultimate.The.Dawn.1-nirvanaj.mkv
Format                      : Matroska
Format version              : Version 4
File size                   : 201 MiB
Duration                    : 9 min 7 s
Overall bit rate            : 3 077 kb/s
Movie name                  : Hellsing.Ultimate.The.Dawn.I-nirvanaj
Encoded date                : UTC 2013-07-12 20:49:41
Writing application         : mkvmerge v6.3.0 ('You can't stop me!') built on Jun 28 2013 20:09:41
Writing library             : libebml v1.3.0 + libmatroska v1.4.0
Attachments                 : Brianne_s_hand_1.ttf

Video
ID                          : 1
Format                      : AVC
Format/Info                 : Advanced Video Codec
Format profile              : High 10@L5.1
Format settings             : CABAC / 16 Ref Frames
Format settings, CABAC      : Yes
Format settings, Reference  : 16 frames
Codec ID                    : V_MPEG4/ISO/AVC
Duration                    : 9 min 7 s
Width                       : 1 920 pixels
Height                      : 1 080 pixels
Display aspect ratio        : 16:9
Frame rate mode             : Constant
Frame rate                  : 23.976 (24000/1001) FPS
Color space                 : YUV
Chroma subsampling          : 4:2:0
Bit depth                   : 10 bits
Scan type                   : Progressive
Writing library             : x264 core 122 r2184 5c85e0a
Encoding settings           : cabac=1 / ref=16 / deblock=1:0:0 / analyse=0x3:0x113 / me=umh / subme=10 / psy=1 / psy_rd=1.00:0.00 / mixed_ref=1 / me_range=32 / chroma_me=1 / trellis=2 / 8x8dct=1 / cqm=0 / deadzone=21,11 / fast_pskip=0 / chroma_qp_offset=-2 / threads=12 / sliced_threads=0 / nr=0 / decimate=1 / interlaced=0 / bluray_compat=0 / constrained_intra=0 / bframes=12 / b_pyramid=2 / b_adapt=2 / b_bias=0 / direct=1 / weightb=1 / open_gop=0 / weightp=2 / keyint=240 / keyint_min=23 / scenecut=40 / intra_refresh=0 / rc_lookahead=50 / rc=crf / mbtree=1 / crf=15.0 / qcomp=0.60 / qpmin=0 / qpmax=81 / qpstep=4 / ip_ratio=1.40 / aq=1:1.00
Default                     : Yes
Forced                      : No

Audio
ID                          : 2
Format                      : AAC LC
Format/Info                 : Advanced Audio Codec Low Complexity
Codec ID                    : A_AAC-2
Duration                    : 9 min 7 s
Channel(s)                  : 6 channels
Channel layout              : C L R Ls Rs LFE
Sampling rate               : 48.0 kHz
Frame rate                  : 46.875 FPS (1024 SPF)
Compression mode            : Lossy
Title                       : aac 5.1
Language                    : Japanese
Default                     : Yes
Forced                      : No

Text #1
ID                          : 3
Format                      : ASS
Codec ID                    : S_TEXT/ASS
Codec ID/Info               : Advanced Sub Station Alpha
Compression mode            : Lossless
Language                    : French
Default                     : Yes
Forced                      : No

Text #2
ID                          : 4
Format                      : ASS
Codec ID                    : S_TEXT/ASS
Codec ID/Info               : Advanced Sub Station Alpha
Compression mode            : Lossless
Language                    : English
Default                     : No
Forced                      : No

Hellsing.Ultimate.OAV01-10.SUBFRENCH.720p.BluRay.x264-KAZETV

mot de passe : hellsing
KAZETV brings to you :

Hellsing.Ultimate.OAV01.SUBFRENCH.720p.BluRay.x264-KAZETV

---- Video Info ----

* codec      : X264
* pass       : 2 pass
* framerate  : 23.976 fps
* resolution : 1280x720

---- Audio Info ----

* track     : Japanese
* subtitle  : French

* codec     : DTS 5.1
* bitrate   : 768 Kbps
* frequence : 48.0 KHZ

---- Packing Info ----

* runtime   : 50min 19s
* size      : 2.19 Gio
* pack      : 47x50mB

* link      : https://www.animeka.com/animes/detail/hellsing-ultimate.html

* note      : Greetz a la foret qui dort, la pierre brillante, au dieu de la mort et au soleil levant.