Youjo Senki Saga of Tanya the Evil 720p/1080p VF/VOSTFR


L’histoire suit Tanya Degurechov, une jeune fille aux commandes d’une armée de sorciers dans une Europe d’un monde parallèle, en plein cœur de l’équivalent de la Première Guerre mondiale. Malgré son jeune âge et son allure frêle, elle est capable d’anéantir à elle seule une armée entière. Autrefois banal salarié dans la ville de Tokyo, il a été assassiné en 2013 puis réincarné en jeune fille dans cet autre monde pour avoir mit en colère un Dieu. Avec ses nouveaux pouvoirs en poche, Tanya va devenir l’entité la plus dangereuse et la plus crainte de l’armée.

Youjo.Senki.Saga.of.Tanya.the.Evil.S01.FRENCH.1080p.WEB.H264-AMB3R

mot de passe : senki
            db      `7MMM.     ,MMF'`7MM"""Yp,         `7MM"""Mq.           
           ;MM:       MMMb    dPMM    MM    Yb           MM   `MM.          
          ,V^MM.      M YM   ,M MM    MM    dP pd""b.    MM   ,M9           
         ,M  `MM      M  Mb  M' MM    MM"""bg.(O)  `8b   MMmmdM9            
         AbmmmqMA     M  YM.P'  MM    MM    `Y     ,89   MM  YM.            
        A'     VML    M  `YM'   MM    MM    ,9   ""Yb.   MM   `Mb.          
      .AMA.   .AMMA..JML. `'  .JMML..JMMmmmd9       88 .JMML. .JMM.         
                                              (O)  .M'                      
                                               bmmmd'                       
	PRESENT:         

+-----------------------------------------------------------------------+

	Youjo.Senki.Saga.of.Tanya.the.Evil.E01.FRENCH.1080p.WEB.H264-AMB3R 

	Release date   : 28/02/2019
	Source         : Crunchyroll. 

	Video          : H264 - Untouched 
	Bitrate        : 5 138 kb/s
	Resolution     : 1920x1080
	Frame rate     : 23.976 FPS

	Audio          : Jap AAC 2.0 - Untouched 
	Bit rate       : 128 kb/s
        Subtitle       : French Forced (srt) 
	Sampling rate  : 44.1 kHz
	Duration       : 23 min 47 s
	Size           : 896 MiB 
	Package        : 19 x 50 Mo

	Link: https://www.nautiljon.com/animes/youjo+senki-+saga+of+tanya+the+evil.html

+-----------------------------------------------------------------------+

Youjo.Senki.Saga.of.Tanya.the.Evil.S01.FRENCH.720p.WEB.x264-RiPiT

mot de passe : senki
Source....: Crunchyroll (Untouched)
TMDb......: https://www.themoviedb.org/tv/69346

Team Note.: We're looking for contacts, tools, or some help for Netflix, Amazon, widevine / playready stuff, please send a mail

Contact...: ripitcontact@protonmail.com
 
----------------------------------------------------------------------------------------------------------------
 
General
Complete name                            : Youjo.Senki.Saga.of.Tanya.the.Evil.E01.FRENCH.720p.WEB.x264-RiPiT.mkv
Format                                   : Matroska
Format version                           : Version 4
File size                                : 416 MiB
Duration                                 : 23 min 47 s
Overall bit rate                         : 2 445 kb/s
Movie name                               : Youjo.Senki.Saga.of.Tanya.the.Evil.E01.FRENCH.720p.WEB.x264-RiPiT
Encoded date                             : UTC 2015-04-01 20:00:00
Writing application                      : mkvmerge v38.0.0 ('The Silent Type') 64-bit
Writing library                          : libebml v1.3.9 + libmatroska v1.5.2 / Lavf57.71.100

Video
ID                                       : 1
Format                                   : AVC
Format/Info                              : Advanced Video Codec
Format profile                           : High@L4
Format settings                          : CABAC / 6 Ref Frames
Format settings, CABAC                   : Yes
Format settings, Reference frames        : 6 frames
Codec ID                                 : V_MPEG4/ISO/AVC
Duration                                 : 23 min 46 s
Bit rate                                 : 2 315 kb/s
Width                                    : 1 280 pixels
Height                                   : 720 pixels
Display aspect ratio                     : 16:9
Frame rate mode                          : Constant
Frame rate                               : 23.976 (23976/1000) FPS
Color space                              : YUV
Chroma subsampling                       : 4:2:0
Bit depth                                : 8 bits
Scan type                                : Progressive
Bits/(Pixel*Frame)                       : 0.105
Stream size                              : 394 MiB (95%)
Writing library                          : x264 core 142
Encoding settings                        : cabac=1 / ref=6 / deblock=1:1:1 / analyse=0x3:0x113 / me=umh / subme=8 / psy=1 / psy_rd=0.40:0.00 / mixed_ref=1 / me_range=16 / chroma_me=1 / trellis=1 / 8x8dct=1 / cqm=0 / deadzone=21,11 / fast_pskip=1 / chroma_qp_offset=-2 / threads=10 / lookahead_threads=1 / sliced_threads=0 / nr=0 / decimate=1 / interlaced=0 / bluray_compat=0 / constrained_intra=0 / bframes=3 / b_pyramid=2 / b_adapt=2 / b_bias=0 / direct=3 / weightb=1 / open_gop=0 / weightp=2 / keyint=48 / keyint_min=24 / scenecut=40 / intra_refresh=0 / rc_lookahead=48 / rc=crf / mbtree=1 / crf=15.0 / qcomp=0.60 / qpmin=0 / qpmax=69 / qpstep=4 / vbv_maxrate=4000 / vbv_bufsize=6000 / crf_max=0.0 / nal_hrd=none / filler=0 / ip_ratio=1.40 / aq=1:0.60
Default                                  : Yes
Forced                                   : No

Audio
ID                                       : 2
Format                                   : AAC LC
Format/Info                              : Advanced Audio Codec Low Complexity
Codec ID                                 : A_AAC-2
Duration                                 : 23 min 47 s
Bit rate                                 : 128 kb/s
Channel(s)                               : 2 channels
Channel layout                           : L R
Sampling rate                            : 44.1 kHz
Frame rate                               : 43.066 FPS (1024 SPF)
Compression mode                         : Lossy
Delay relative to video                  : -83 ms
Stream size                              : 21.8 MiB (5%)
Language                                 : French
Default                                  : Yes
Forced                                   : No

Text
ID                                       : 3
Format                                   : ASS
Codec ID                                 : S_TEXT/ASS
Codec ID/Info                            : Advanced Sub Station Alpha
Duration                                 : 19 min 38 s
Bit rate                                 : 11 b/s
Count of elements                        : 16
Compression mode                         : Lossless
Stream size                              : 1.59 KiB (0%)
Title                                    : Forced
Language                                 : French
Default                                  : Yes
Forced                                   : Yes

Youjo.Senki.Saga.of.Tanya.the.Evil.S01.SUBFRENCH.1080p.WEB.x264-RiPiT

mot de passe : senki
Source....: Crunchyroll (Untouched)
TMDb......: https://www.themoviedb.org/tv/69346

Team Note.: We're looking for contacts, tools, or some help for Netflix, Amazon, widevine / playready stuff, please send a mail

Contact...: ripitcontact@protonmail.com
 
--------------------------------------------------------------------------------------------------------------------
 
General
Complete name                            : Youjo.Senki.Saga.of.Tanya.the.Evil.E01.SUBFRENCH.1080p.WEB.x264-RiPiT.mkv
Format                                   : Matroska
Format version                           : Version 4
File size                                : 1.34 GiB
Duration                                 : 23 min 40 s
Overall bit rate                         : 8 119 kb/s
Movie name                               : Youjo.Senki.Saga.of.Tanya.the.Evil.E01.SUBFRENCH.1080p.WEB.x264-RiPiT
Encoded date                             : UTC 2015-04-01 20:00:00
Writing application                      : mkvmerge v38.0.0 ('The Silent Type') 64-bit
Writing library                          : libebml v1.3.9 + libmatroska v1.5.2 / Lavf57.71.100

Video
ID                                       : 1
Format                                   : AVC
Format/Info                              : Advanced Video Codec
Format profile                           : High@L4
Format settings                          : CABAC / 4 Ref Frames
Format settings, CABAC                   : Yes
Format settings, Reference frames        : 4 frames
Codec ID                                 : V_MPEG4/ISO/AVC
Duration                                 : 23 min 40 s
Bit rate                                 : 8 000 kb/s
Width                                    : 1 920 pixels
Height                                   : 1 080 pixels
Display aspect ratio                     : 16:9
Frame rate mode                          : Constant
Frame rate                               : 23.976 (24000/1001) FPS
Color space                              : YUV
Chroma subsampling                       : 4:2:0
Bit depth                                : 8 bits
Scan type                                : Progressive
Bits/(Pixel*Frame)                       : 0.161
Stream size                              : 1.32 GiB (98%)
Writing library                          : x264 core 142
Encoding settings                        : cabac=1 / ref=4 / deblock=1:1:1 / analyse=0x3:0x113 / me=umh / subme=8 / psy=1 / psy_rd=0.40:0.00 / mixed_ref=1 / me_range=16 / chroma_me=1 / trellis=1 / 8x8dct=1 / cqm=0 / deadzone=21,11 / fast_pskip=1 / chroma_qp_offset=-2 / threads=12 / lookahead_threads=2 / sliced_threads=0 / nr=0 / decimate=1 / interlaced=0 / bluray_compat=0 / constrained_intra=0 / bframes=0 / weightp=2 / keyint=96 / keyint_min=48 / scenecut=40 / intra_refresh=0 / rc_lookahead=48 / rc=2pass / mbtree=1 / bitrate=8000 / ratetol=1.0 / qcomp=0.60 / qpmin=0 / qpmax=69 / qpstep=4 / cplxblur=20.0 / qblur=0.5 / vbv_maxrate=12000 / vbv_bufsize=18000 / nal_hrd=none / filler=0 / ip_ratio=1.40 / aq=1:0.60
Default                                  : Yes
Forced                                   : No

Audio
ID                                       : 2
Format                                   : AAC LC
Format/Info                              : Advanced Audio Codec Low Complexity
Codec ID                                 : A_AAC-2
Duration                                 : 23 min 40 s
Bit rate                                 : 128 kb/s
Channel(s)                               : 2 channels
Channel layout                           : L R
Sampling rate                            : 44.1 kHz
Frame rate                               : 43.066 FPS (1024 SPF)
Compression mode                         : Lossy
Stream size                              : 21.7 MiB (2%)
Language                                 : Japanese
Default                                  : Yes
Forced                                   : No

Text
ID                                       : 3
Format                                   : ASS
Codec ID                                 : S_TEXT/ASS
Codec ID/Info                            : Advanced Sub Station Alpha
Duration                                 : 22 min 35 s
Bit rate                                 : 142 b/s
Count of elements                        : 320
Compression mode                         : Lossless
Stream size                              : 23.6 KiB (0%)
Language                                 : French
Default                                  : Yes
Forced                                   : Yes

Gekijouban.Youjo.Senki.FRENCH.1080p.WEBRip.X264-SLEEPINGFOREST.mkv

Gekijouban.Youjo.Senki.SUBFRENCH.1080p.WEBRip.X264-SLEEPINGFOREST.mkv

Youjo.Senki.Saga.of.Tanya.the.Evil.S00E15.Movie.SUBFRENCH.720p.WEBRip.x264-BSD.mkv

mot de passe : senki
Gekijouban.Youjo.Senki.FRENCH.1080p.WEBRip.X264-SLEEPINGFOREST

Genre: Action / Drame
Archive : **x100mo
Archive name: sf-gys**web1080p.r*
Source Video: Crunchy
Source Audio: Crunchy
Source Sub: Crunchy
Video: X264 1920*1080 23.976fps
Bitrate Video: ~8100 Kbps (Untouched)
Audio: .FR AAC (Untouched)
Sub: non (Untouched)
Format: .MKV

	
Come and take a rest in the sleeping forest...
Gekijouban.Youjo.Senki.SUBFRENCH.1080p.WEBRip.X264-SLEEPINGFOREST

Genre: Action / Drame
Archive : 60x100mo
Archive name: sf-gys**web1080p.r*
Source Video: Crunchy
Source Audio: Crunchy
Source Sub: Crunchy
Video: X264 1920*1080 23.976fps
Bitrate Video: ~8100 Kbps (Untouched)
Audio: .JP AAC (Untouched)
Sub: French (Untouched)
Format: .MKV

	
Come and take a rest in the sleeping forest...
█▀▀▀▀▀▀▀▀▀▀▀▀▀▀▀▀▀▀▀▀▀▀▀▀▀▀▀▀▀▀▀▀▀▀▀▀▀▀▀▀▀▀▀▀▀▀▀▀▀▀▀▀▀▀▀▀▀▀▀▀▀▀▀▀▀▀▀▀▀▀▀▀▀▀▀▀▀▀▀▀▀▀▀▀▀▀▀▀▀▀▀▀▀▀▀▀▀▀▀▀▀▀▀▀▀▀▀▀▀▀▀▀█
█ █▀▀▀▀▀▀▀▀▀▀▀▀▀▀▀▀▀▀▀▀▀▀▀▀▀▀▀▀▀▀▀▀▀▀▀▀▀▀▀▀▀▀▀▀▀▀▀▀▀▀▀▀▀▀▀▀▀▀▀▀▀▀▀▀▀▀▀▀▀▀▀▀▀▀▀▀▀▀▀▀▀▀▀▀▀▀▀▀▀▀▀▀▀▀▀▀▀▀▀▀▀▀▀▀▀▀▀▀█ █
█ █     oooooooooo.   .oooooo..o oooooooooo.           ooooooooooooo                                           
█ █     `888'   `Y8b d8P'    `Y8 `888'   `Y8b          8'   888   `8                                           
█ █      888     888 Y88bo.       888      888              888       .ooooo.   .oooo.   ooo. .oo.  .oo.       
█ █      888oooo888'  `"Y8888o.   888      888              888      d88' `88b `P  )88b  `888P"Y88bP"Y88b      
█ █      888    `88b      `"Y88b  888      888 8888888      888      888ooo888  .oP"888   888   888   888      
█ █      888    .88P oo     .d8P  888     d88'              888      888    .o d8(  888   888   888   888      
█ █     o888bood8P'  8""88888P'  o888bood8P'               o888o     `Y8bod8P' `Y888""8o o888o o888o o888o     
                                                                                                           
█ ▀▀▀▀▀▀▀▀▀▀▀▀▀▀▀▀▀▀▀▀▀▀▀▀▀▀▀▀▀▀▀▀▀▀▀▀▀▀▀▀▀▀▀▀▀▀▀▀▀▀▀▀▀▀▀▀▀▀▀▀▀▀▀▀▀▀▀▀▀▀▀▀▀▀▀▀▀▀▀▀▀▀▀▀▀▀▀▀▀▀▀▀▀▀▀▀▀▀▀▀▀▀▀▀▀▀▀▀▀▀ █
█ █▀▀▀▀▀▀▀▀▀▀▀▀▀▀▀▀▀▀▀▀▀▀▀▀▀▀▀▀▀▀▀▀▀▀▀▀▀▀▀▀▀▀▀▀▀▀▀▀▀▀▀▀▀▀▀▀▀▀▀▀▀▀▀▀▀▀▀▀▀▀▀▀▀▀▀▀▀▀▀▀▀▀▀▀▀▀▀▀▀▀▀▀▀▀▀▀▀▀▀▀▀▀▀▀▀▀▀▀█ █                                                                                                          
█ █         PRESENTE.....: Youjo.Senki.Saga.of.Tanya.the.Evil.S00E15.Movie.SUBFRENCH.720p.WEBRip.x264-BSD                                                                                                              
█ █         TheMovieDB...: https://www.themoviedb.org/movie/553839                                             █ █
█ █                                                                                                            █ █
█ █         ■ CODEC...........: x264                 ║      ■ SOURCE ViDEO....: Crunchyroll (Untouched)        █ █
█ █                                                  ║                                                         █ █
█ █         ■ BiTRATE.........: 4000                 ║      ■ SOURCE AUDiO....: Crunchyroll (Untouched)        █ █
█ █                                                  ║                                                         █ █
█ █         ■ RESOLUTiON......: 1 280 X 720          ║      ■ SOURCE SUBTiTLES: Crunchyroll                    █ █
█ █                                                  ║                                                         █ █
█ █         ■ ASPECT RATiO....: 16:9                 ║      ■ FONT............: Burbin Casual NC_0.ttf         █ █
█ █                                                  ║                                                         █ █
█ █         ■ FRAMERATE.......: 23.976 fps           ║      ■ NB FICHIER(S)...: 1                              █ █
█ █                                                  ║                                                         █ █
█ █         ■ LANGUAGE(s).....: Japonais             ║      ■ Note............:                                █ █
█ █                                                  ║                                                         █ █
█ █         ■ AUDiO iNFOS.....: AAC 128 kb/s         ║                                                         █ █
█ █                                                  ║                                                         █ █
█ █         ■ SUBTiTLES.......: Francais             ║                                                         █ █
█ █                                                  ║                                                         █ █
█ █         ■ DURATiON........: 24 min               ║                                                         █ █
█ █                                                  ║                                                         █ █
█ █         ■ FORMAT..........: MKV                  ║                                                         █ █
█ █                                                                                                            █ █
█ ▀▀▀▀▀▀▀▀▀▀▀▀▀▀▀▀▀▀▀▀▀▀▀▀▀▀▀▀▀▀▀▀▀▀▀▀▀▀▀▀▀▀▀▀▀▀▀▀▀▀▀▀▀▀▀▀▀▀▀▀▀▀▀▀▀▀▀▀▀▀▀▀▀▀▀▀▀▀▀▀▀▀▀▀▀▀▀▀▀▀▀▀▀▀▀▀▀▀▀▀▀▀▀▀▀▀▀▀▀▀ █
█ █▀▀▀▀▀▀▀▀▀▀▀▀▀▀▀▀▀▀▀▀▀▀▀▀▀▀▀▀▀▀▀▀▀▀▀▀▀▀▀▀▀▀▀▀▀▀▀▀▀▀▀▀▀▀▀▀▀▀▀▀▀▀▀▀▀▀▀▀▀▀▀▀▀▀▀▀▀▀▀▀▀▀▀▀▀▀▀▀▀▀▀▀▀▀▀▀▀▀▀▀▀▀▀▀▀▀▀▀█ █
█ █                                            REMERCIEMENTS :                                                 █ █
█ █                                                                                                            █ █
█ █                    KAZETV, SHiNiGAMi, EliteT, PRESSECiTRON, LiBERTAD, TAT, LAZARUS                         █ █
█ █                                                                                                            █ █
█ ▀▀▀▀▀▀▀▀▀▀▀▀▀▀▀▀▀▀▀▀▀▀▀▀▀▀▀▀▀▀▀▀▀▀▀▀▀▀▀▀▀▀▀▀▀▀▀▀▀▀▀▀▀▀▀▀▀▀▀▀▀▀▀▀▀▀▀▀▀▀▀▀▀▀▀▀▀▀▀▀▀▀▀▀▀▀▀▀▀▀▀▀▀▀▀▀▀▀▀▀▀▀▀▀▀▀▀▀▀▀ █
▀▀▀▀▀▀▀▀▀▀▀▀▀▀▀▀▀▀▀▀▀▀▀▀▀▀▀▀▀▀▀▀▀▀▀▀▀▀▀▀▀▀▀▀▀▀▀▀▀▀▀▀▀▀▀▀▀▀▀▀▀▀▀▀▀▀▀▀▀▀▀▀▀▀▀▀▀▀▀▀▀▀▀▀▀▀▀▀▀▀▀▀▀▀▀▀▀▀▀▀▀▀▀▀▀▀▀▀▀▀▀▀▀▀