Bojack Horseman 1080p MULTi


Vingt ans après avoir crevé le petit écran dans la sitcom culte Horsin’ Around, l’étalon le plus célèbre des années 1990 a perdu de sa superbe. Alcoolique et déprimé, BoJack vit dans une garçonnière à Hollywood et traîne son amertume dans des pulls bigarrés. Heureusement (ou malheureusement ?), le bourrin peut compter sur des amis parfois un brin encombrants : Diane NGuyen, nègre littéraire chargé d’écrire son autobiographie, Princess Carolyn, tour à tour ex-petite amie et agent attitrée, Todd Chavez, colocataire autoproclamé et même le cabotin Mr. Peanutbutter, rival et héros toujours populaire d’une sitcom analogue. À Los Angeles où humains et animaux de tout poil cohabitent, BoJack essaie tant bien que mal de raviver sa gloire passée.

BoJack.Horseman.S01.MULTi.1080p.WEB.x264-ALLDAYiN

BoJack.Horseman.S02.MULTi.1080p.WEB.x264-ALLDAYiN

BoJack.Horseman.S03.MULTi.1080p.WEB.x264-ALLDAYiN

BoJack.Horseman.S04.MULTi.1080p.WEB.x264-ALLDAYiN

BoJack.Horseman.S05.MULTi.1080p.WEB.x264-ALLDAYiN

BoJack.Horseman.S06.MULTi.1080p.WEB.x264-CiELOS

mot de passe : bojack
IMDb : https://www.imdb.com/title/tt3398228/
Source : TrollHD (video) & me (everything else)

General
Unique ID                                : 186430326803712693341717276475107092713 (0x8C412CC5CEF433201606B5C5FFD4A8E9)
Complete name                            : BoJack.Horseman.S01.MULTi.1080p.WEB.x264-ALLDAYiN/BoJack.Horseman.S01E12.FiNAL.MULTi.1080p.WEB.x264-ALLDAYiN.mkv
Format                                   : Matroska
Format version                           : Version 4
File size                                : 966 MiB
Duration                                 : 26 min 2 s
Overall bit rate                         : 5 189 kb/s
Encoded date                             : UTC 2021-03-29 17:45:33
Writing application                      : mkvmerge v31.0.0 ('Dolores In A Shoestand') 64-bit
Writing library                          : libebml v1.3.6 + libmatroska v1.4.9

Video
ID                                       : 1
Format                                   : AVC
Format/Info                              : Advanced Video Codec
Format profile                           : High@L4.1
Format settings                          : CABAC / 4 Ref Frames
Format settings, CABAC                   : Yes
Format settings, ReFrames                : 4 frames
Codec ID                                 : V_MPEG4/ISO/AVC
Duration                                 : 25 min 47 s
Bit rate                                 : 3 943 kb/s
Width                                    : 1 920 pixels
Height                                   : 1 080 pixels
Display aspect ratio                     : 16:9
Frame rate mode                          : Constant
Frame rate                               : 23.976 (24000/1001) FPS
Color space                              : YUV
Chroma subsampling                       : 4:2:0
Bit depth                                : 8 bits
Scan type                                : Progressive
Bits/(Pixel*Frame)                       : 0.079
Stream size                              : 727 MiB (75%)
Writing library                          : x264 core 148 r2638 7599210
Encoding settings                        : cabac=1 / ref=4 / deblock=1:-3:-3 / analyse=0x3:0x133 / me=umh / subme=10 / psy=1 / psy_rd=1.00:0.00 / mixed_ref=1 / me_range=48 / chroma_me=1 / trellis=2 / 8x8dct=1 / cqm=0 / deadzone=21,11 / fast_pskip=1 / chroma_qp_offset=-2 / threads=12 / lookahead_threads=2 / sliced_threads=0 / nr=0 / decimate=0 / interlaced=0 / bluray_compat=0 / constrained_intra=0 / bframes=8 / b_pyramid=2 / b_adapt=2 / b_bias=0 / direct=3 / weightb=1 / open_gop=0 / weightp=2 / keyint=240 / keyint_min=23 / scenecut=40 / intra_refresh=0 / rc=crf / mbtree=0 / crf=17.0 / qcomp=0.60 / qpmin=0 / qpmax=69 / qpstep=4 / ip_ratio=1.30 / pb_ratio=1.20 / aq=3:0.70
Default                                  : Yes
Forced                                   : No

Audio #1
ID                                       : 2
Format                                   : E-AC-3
Format/Info                              : Enhanced AC-3
Commercial name                          : Dolby Digital Plus
Codec ID                                 : A_EAC3
Duration                                 : 26 min 2 s
Bit rate mode                            : Constant
Bit rate                                 : 640 kb/s
Channel(s)                               : 6 channels
Channel layout                           : L R C LFE Ls Rs
Sampling rate                            : 48.0 kHz
Frame rate                               : 31.250 FPS (1536 SPF)
Compression mode                         : Lossy
Stream size                              : 119 MiB (12%)
Title                                    : French
Language                                 : French
Service kind                             : Complete Main
Default                                  : Yes
Forced                                   : No

Audio #2
ID                                       : 3
Format                                   : E-AC-3
Format/Info                              : Enhanced AC-3
Commercial name                          : Dolby Digital Plus
Codec ID                                 : A_EAC3
Duration                                 : 26 min 2 s
Bit rate mode                            : Constant
Bit rate                                 : 640 kb/s
Channel(s)                               : 6 channels
Channel layout                           : L R C LFE Ls Rs
Sampling rate                            : 48.0 kHz
Frame rate                               : 31.250 FPS (1536 SPF)
Compression mode                         : Lossy
Stream size                              : 119 MiB (12%)
Title                                    : English
Language                                 : English
Service kind                             : Complete Main
Default                                  : No
Forced                                   : No

Text #1
ID                                       : 4
Format                                   : UTF-8
Codec ID                                 : S_TEXT/UTF8
Codec ID/Info                            : UTF-8 Plain Text
Duration                                 : 23 min 43 s
Bit rate                                 : 0 b/s
Count of elements                        : 6
Stream size                              : 175 Bytes (0%)
Title                                    : French (Forced)
Language                                 : French
Default                                  : Yes
Forced                                   : Yes

Text #2
ID                                       : 5
Format                                   : UTF-8
Codec ID                                 : S_TEXT/UTF8
Codec ID/Info                            : UTF-8 Plain Text
Duration                                 : 24 min 1 s
Bit rate                                 : 102 b/s
Count of elements                        : 441
Stream size                              : 18.0 KiB (0%)
Title                                    : French (Full)
Language                                 : French
Default                                  : No
Forced                                   : No

Text #3
ID                                       : 6
Format                                   : UTF-8
Codec ID                                 : S_TEXT/UTF8
Codec ID/Info                            : UTF-8 Plain Text
Duration                                 : 25 min 21 s
Bit rate                                 : 119 b/s
Count of elements                        : 578
Stream size                              : 22.3 KiB (0%)
Title                                    : English (SDH)
Language                                 : English
Default                                  : No
Forced                                   : No
   ▄▄▄▄▄▄▄▄▄▄▄  ▄▄▄▄▄▄▄▄▄▄▄  ▄▄▄▄▄▄▄▄▄▄▄  ▄            ▄▄▄▄▄▄▄▄▄▄▄  ▄▄▄▄▄▄▄▄▄▄▄ 
  ▐░░░░░░░░░░░▌▐░░░░░░░░░░░▌▐░░░░░░░░░░░▌▐░▌          ▐░░░░░░░░░░░▌▐░░░░░░░░░░░▌
  ▐░█▀▀▀▀▀▀▀▀▀  ▀▀▀▀█░█▀▀▀▀ ▐░█▀▀▀▀▀▀▀▀▀ ▐░▌          ▐░█▀▀▀▀▀▀▀█░▌▐░█▀▀▀▀▀▀▀▀▀ 
  ▐░▌               ▐░▌     ▐░▌          ▐░▌          ▐░▌       ▐░▌▐░▌          
  ▐░▌               ▐░▌     ▐░█▄▄▄▄▄▄▄▄▄ ▐░▌          ▐░▌       ▐░▌▐░█▄▄▄▄▄▄▄▄▄ 
  ▐░▌               ▐░▌     ▐░░░░░░░░░░░▌▐░▌          ▐░▌       ▐░▌▐░░░░░░░░░░░▌
  ▐░▌               ▐░▌     ▐░█▀▀▀▀▀▀▀▀▀ ▐░▌          ▐░▌       ▐░▌ ▀▀▀▀▀▀▀▀▀█░▌
  ▐░█▄▄▄▄▄▄▄▄▄  ▄▄▄▄█░█▄▄▄▄ ▐░█▄▄▄▄▄▄▄▄▄ ▐░█▄▄▄▄▄▄▄▄▄ ▐░█▄▄▄▄▄▄▄█░▌ ▄▄▄▄▄▄▄▄▄█░▌
  ▐░░░░░░░░░░░▌▐░░░░░░░░░░░▌▐░░░░░░░░░░░▌▐░░░░░░░░░░░▌▐░░░░░░░░░░░▌▐░░░░░░░░░░░▌
   ▀▀▀▀▀▀▀▀▀▀▀  ▀▀▀▀▀▀▀▀▀▀▀  ▀▀▀▀▀▀▀▀▀▀▀  ▀▀▀▀▀▀▀▀▀▀▀  ▀▀▀▀▀▀▀▀▀▀▀  ▀▀▀▀▀▀▀▀▀▀▀ 
 

   Release : BoJack.Horseman.S06E16.FiNAL.MULTi.1080p.WEB.x264-CiELOS
 
   Date : 2020-01-31 
   Size : 954 MiB
 
   Duration   : 27 min 24 s
   Resolution : 1920x1080
   Framerate  : 23.976 fps
 
   Video : x264 - Untouched - 3 650 kb/s 
   Audio : 1 - French - E-AC-3 - 6ch - 640 kb/s
         : 2 - English - E-AC-3 - 6ch - 640 kb/s
   Subs  : French (Forced) / French / English
 
   iMDB : https://www.imdb.com/title/tt3398228/